Торрент файл
скачать торрент магнет ссылка Добавлен: 25 май 2011, 08:46
Размер: 1.46 ГБ
Сидеров: 117
Личеров: 16
Автор

СообщениеДобавлено: 25 май 2011, 08:46 

Не в сети
Супермодератор
Аватара пользователя
Дата регистрации:
22 май 2010, 11:03
Возраст: 31
Спасибо: 7509 / 13
Сообщения: 49940
[b]Схватка / Heat[/b]


Перевод: Профессиональный (многоголосый, закадровый) - Twister
Субтитры: Отсутствуют
Формат: HDRip, AVI, XviD, AC3
Страна:США
Режиссер:Майкл Манн / Michael Mann
Жанр:Триллер, драма, криминал
Продолжительность: 02:50:27
Год выпуска:1995

В ролях:Аль Пачино, Роберт Де Ниро, Вэл Килмер, Том Сайзмор, Джон Войт, Натали Портман, Эшли Джадд.

Описание: Нил МакКоли - преступник. Один из лучших, если можно так сказать о преступнике, в Лос-Анджелесе, а быть может, и во всей Америке. И работать с ним вместе почитают за честь суперпрофессионалы криминального мира. Но против него выступает Винсент Ханна. Детектив. Один из лучших в Лос-Анджелесе, а быть может, и во всей Америке. У Винсента и Нила очень много общего. Вероятно, общего у них даже больше, чем отличий. Однако они все же стоят по разные стороны закона. Две сильнейшие команды сошлись друг против друга. Только речь идет не о спортивном состязании, а о схватке не на жизнь, а на смерть...



Видео:720x304 (2.37:1), 23.976 fps, XviD build 50 ~1024 kbps avg, 0.20 bit/pixel
Аудио:48 kHz, AC3 Dolby Digital, 2/0 (L,R) ch, ~192.00 kbps avg
Семпл, исходник

Rip от:

[b]
MediaInfo"]

Полное имя: D:\Фильмы\Heat.avi
Формат: AVI
Формат/Информация: Audio Video Interleave
Размер файла: 1,46 Гбайт
Продолжительность: 2 ч. 50 м.
Общий поток: 1226 Кбит/сек
Программа кодирования: VirtualDubModRus 1.5.10.2 (build 2542/release)
Библиотека кодирования: VirtualDubMod build 2542/release

Видео
Идентификатор: 0
Формат: MPEG-4 Visual
Профиль формата: Advanced Simple@L5
Параметр BVOP формата: 3
Параметр QPel формата: Нет
Параметр GMC формата: Без точки перехода
Параметр матрицы формата: Выборочная
Идентификатор кодека: XVID
Идентификатор кодека/Подсказка: XviD
Продолжительность: 2 ч. 50 м.
Битрейт: 1025 Кбит/сек
Ширина: 720 пикс.
Высота: 304 пикс.
Соотношение сторон: 2,35:1
Частота кадров: 23,976 кадр/сек
Цветовое пространство: YUV
Подвыборка цветности: 4:2:0
Битовая глубина: 8 бит
Тип развёртки: Прогрессивная
Метод сжатия: С потерями
Бит/(Пиксели*Кадры): 0.195
Размер потока: 1,22 Гбайт (84%)
Библиотека кодирования: XviD 1.2.1 (UTC 2008-12-04)

Аудио
Идентификатор: 1
Формат: AC-3
Формат/Информация: Audio Coding 3
Расширение режима: CM (complete main)
Идентификатор кодека: 2000
Продолжительность: 2 ч. 50 м.
Вид битрейта: Постоянный
Битрейт: 192 Кбит/сек
Канал(ы): 2 канала(ов)
Расположение каналов: Front: L R
Частота: 48,0 КГц
Битовая глубина: 16 бит
Метод сжатия: С потерями
Размер потока: 234 Мбайт (16%)
Выравнивание: Разделение по промежуткам
Продолжительность промежутка: 42мс. (1,00 видеокадр)
Время предзагрузки промежутка: 500 ms
[b]
Показать скриншоты"]

















реклама партнёра


Вернуться к началу
 Профиль Отправить личное сообщение  
 
   Похожие торренты   Автор   Торрент   Размер 
В этой теме нет новых непрочитанных сообщений. Кибер / Blackhat (Майкл Манн) [боевик, триллер, драма, криминал, детектив, 2015] HDRip, Dub [Лицензия]

Dracon

651 | 37

1.46 ГБ

В этой теме нет новых непрочитанных сообщений. Кибер / Blackhat (Майкл Манн) [боевик, триллер, драма, криминал, детектив, 2015] CAMRip, dub

Dracon

98 | 3

1.38 ГБ

В этой теме нет новых непрочитанных сообщений. Кибер / Blackhat (Майкл Манн) [боевик, триллер, драма, криминал, детектив, 2015] WEB-DLRip, Dub [iTunes]

Dracon

46 | 2

2.05 ГБ

В этой теме нет новых непрочитанных сообщений. Кибер / Blackhat (Майкл Манн) [боевик, триллер, драма, криминал, детектив, 2015] DVD9, Dub+Sub [лицензия]

Dracon

0 | 0

6.83 ГБ

В этой теме нет новых непрочитанных сообщений. Кибер / Blackhat (Майкл Манн) [боевик, триллер, драма, криминал, детектив, 2015] BDRip 1080p, Dub+Sub [лицензия]

Dracon

371 | 201

15.94 ГБ

В этой теме нет новых непрочитанных сообщений. Кибер / Blackhat (Майкл Манн) [боевик, триллер, драма, криминал, детектив, 2015] WEB-DLRip 720p, Dub [iTunes]

Dracon

46 | 4

4.12 ГБ

В этой теме нет новых непрочитанных сообщений. Кибер / Blackhat (Майкл Манн) [боевик, триллер, драма, криминал, детектив, 2015] BDRip 720p, Dub+Sub [лицензия]

Dracon

75 | 3

8.12 ГБ


Начать новую тему Ответить на тему  [ 1 сообщение ] 




Для Мосгорсуда, Роскомнадзора и рекламодателей:: mosgorsud-torrent[собачка]yandex.ru