Торрент файл
скачать торрент магнет ссылка Добавлен: 25 май 2011, 08:46
Размер: 2.44 ГБ
Сидеров: 0
Личеров: 4
Автор

СообщениеДобавлено: 25 май 2011, 08:46 

Не в сети
Супермодератор
Аватара пользователя
Дата регистрации:
22 май 2010, 11:03
Возраст: 32
Спасибо: 7690 / 13
Сообщения: 49871
Хлоя / Chloe

«Как далеко ты зайдешь, чтобы узнать правду?»

Перевод: Профессиональный (полное дублирование)+ профессиональный(многоголосый, закадровый)
Субтитры: русские
Формат: HDRip-AVC, MKV, H.264, AC3

Страна: США, Канада, Франция
Режиссер: Атом Эгоян
Жанр: триллер, драма

Продолжительность: 01:32:10
Год выпуска: 2009

В ролях: Джулианна Мур, Лиам Нисон, Аманда Сэйфрид, Макс Тириот, Р.Х. Томсон, Нина Добрев, Мишу Веллани, Джули Ханер, Лаура ДеКартере, Натали Лисинска

Описание: Кэтрин — врач, Дэвид — профессор, у них прекрасный сын. На первый взгляд, это идеальная семья. Но однажды Дэвид опаздывает на самолет и пропускает семейное торжество, посвященное его дню рождения. С этого момента Кэтрин начинает подозревать мужа в измене. Женщина заключает сделку с Хлоей, которая должна соблазнить Дэвида и предоставить подробный отчет. Но со временем отчеты становятся все более сухими, а встречи двух женщин — все более частыми…







Видео: 1280x704 (16:9), 25 fps, MPEG4(AVC) High@L4.1 ~2886 kbps avg, 0.13 bit/pixel
Аудио#1: Русский: 48 kHz, AC3 Dolby Digital, 3/2 (L,C,R,l,r) + LFE ch, ~448 kbps [полное дублирование]
Аудио#2: Украинский: 48 kHz, AC3 Dolby Digital, 3/2 (L,C,R,l,r) + LFE ch, ~348 kbps [многоголосый, закадровый]



General
Unique ID: 232137747379942275028590014706918848872 (0xAEA41A988BB4A571B441D46914F7796
Complete name: D:\КИНО\the_chloe_[tfile.ru].mkv
Format: Matroska
File size: 2.44 GiB
Duration: 1h 32mn
Overall bit rate: 3 794 Kbps
Movie name: genadiy http://freetorrents.org.ua
Encoded date: UTC 2010-05-15 16:44:08
Writing application: mkvmerge v2.9.7 ('Tenderness') built on Jul1 2009 18:43:35
Writing library: libebml v0.7.7 + libmatroska v0.8.1

Video
ID: 1
Format: AVC
Format/Info: Advanced Video Codec
Format profile: High@L4.1
Format settings, CABAC: Yes
Format settings, ReFrames: 5 frames
Codec ID: V_MPEG4/ISO/AVC
Duration: 1h 32mn
Bit rate: 2 842 Kbps
Width: 1 280 pixels
Height: 704 pixels
Display aspect ratio: 16:9
Frame rate: 25.000 fps
Original frame rate: 24.000 fps
Color space: YUV
Chroma subsampling: 4:2:0
Bit depth: 8 bits
Scan type: Progressive
Bits/(Pixel*Frame): 0.126
Stream size: 1.86 GiB (76%)
Writing library: x264 core 93 r1538bm bd72d46
Encoding settings: cabac=1 / ref=5 / deblock=1:0:0 / analyse=0x3:0x113 / me=umh / subme=7 / psy=1 / psy_rd=1.00:0.00 / mixed_ref=1 / me_range=24 / chroma_me=1 / trellis=2 / 8x8dct=1 / cqm=0 / deadzone=21,11 / fast_pskip=1 / chroma_qp_offset=-2 / threads=4 / sliced_threads=1 / slices=4 / nr=0 / decimate=1 / interlaced=0 / constrained_intra=0 / bframes=3 / b_pyramid=2 / b_adapt=2 / b_bias=0 / direct=1 / wpredb=1 / wpredp=2 / keyint=250 / keyint_min=25 / scenecut=40 / intra_refresh=0 / rc=2pass / mbtree=0 / bitrate=2842 / ratetol=1.0 / qcomp=0.60 / qpmin=10 / qpmax=51 / qpstep=4 / cplxblur=20.0 / qblur=0.5 / ip_ratio=1.40 / pb_ratio=1.30 / aq=1:1.00

Audio #1
ID: 2
Format: AC-3
Format/Info: Audio Coding 3
Mode extension: CM (complete main)
Codec ID: A_AC3
Duration: 1h 32mn
Bit rate mode: Constant
Bit rate: 448 Kbps
Channel(s): 6 channels
Channel positions: Front: L C R, Side: L R, LFE
Sampling rate: 48.0 KHz
Bit depth: 16 bits
Compression mode: Lossy
Stream size: 295 MiB (12%)
Title: http://freetorrents.org.ua
Language: Russian

Audio #2
ID: 3
Format: AC-3
Format/Info: Audio Coding 3
Mode extension: CM (complete main)
Codec ID: A_AC3
Duration: 1h 32mn
Bit rate mode: Constant
Bit rate: 384 Kbps
Channel(s): 6 channels
Channel positions: Front: L C R, Side: L R, LFE
Sampling rate: 48.0 KHz
Bit depth: 16 bits
Compression mode: Lossy
Stream size: 253 MiB (10%)
Title: http://freetorrents.org.ua
Language: Ukrainian

Text
ID: 4
Format: UTF-8
Codec ID: S_TEXT/UTF8
Codec ID/Info: UTF-8 Plain Text
Title: http://freetorrents.org.ua
Language: Russian











реклама партнёра


Вернуться к началу
 Профиль Отправить личное сообщение  
 
   Похожие торренты   Автор   Торрент   Размер 
В этой теме нет новых непрочитанных сообщений. Пленница / The Captive (Атом Эгоян) [триллер, драма, 2014] HDRip, Mvo

Dracon

749 | 25

2.06 ГБ

В этой теме нет новых непрочитанных сообщений. Пленница / The Captive (Атом Эгоян) [триллер, драма, 2014] HDRip, Mvo

Dracon

3428 | 108

1.46 ГБ

В этой теме нет новых непрочитанных сообщений. Помнить / Remember (Атом Эгоян / Atom Egoyan) [2015г., Канада, драма, триллер, HDRip] MVO

Alfredovich

90 | 12

1.22 ГБ

В этой теме нет новых непрочитанных сообщений. Хлоя / Chloe [триллер, драма, 2009] Blu-ray disc 1080p, Dub

salma3

8 | 2

22.68 ГБ

В этой теме нет новых непрочитанных сообщений. Хлоя / Chloe [триллер, драма, мелодрама, 2009] BDRip 720p, Dub

salma3

163 | 83

4.67 ГБ

В этой теме нет новых непрочитанных сообщений. Пленница / The Captive (Атом Эгоян) [триллер, драма, 2014] BDRip 720p, Mvo

Dracon

533 | 32

6.61 ГБ

В этой теме нет новых непрочитанных сообщений. Хлоя и Тео / Chloe and Theo (Эзна Сэндс) [Драма, 2014] WEB-DLRip, Mvo

Dracon

61 | 3

1.37 ГБ


Начать новую тему Ответить на тему  [ 1 сообщение ] 




Для Мосгорсуда, Роскомнадзора и рекламодателей:: mosgorsud-torrent[собачка]yandex.ru