Торрент файл
скачать торрент магнет ссылка Добавлен: 25 май 2011, 08:44
Размер: 1.45 ГБ
Сидеров: 6
Личеров: 2
Автор

СообщениеДобавлено: 25 май 2011, 08:44 

Не в сети
Супермодератор
Аватара пользователя
Дата регистрации:
22 май 2010, 11:03
Возраст: 31
Спасибо: 7524 / 13
Сообщения: 49940
Ловушка / The Resident



Перевод: Любительский (двухголосый), cубтитры: отсутствуют
Формат: HDRip-AVC, MKV, H.264, AC3
Страна: США, Великобританя
Режиссер: Антти Джокинен
Жанр: триллер, драма
Продолжительность: 01:30:43
Год выпуска: 2010

В ролях: Джеффри Дин Морган, Хилари Суэнк, Кристофер Ли, Ли Пейс, Майкл Масси, Онжаню Эллис, Кейша Олсен, Пенни Бальфур, Александрия Морроу, Сэнди К Шелби

Описание: Миллионы одиноких женщин снимают квартиры. Они не задумываются о том, кто жил там до них. Они не знают хозяев. Им не приходит в голову сменить замок.

Расставшись с мужем, молодая врач Джульет Дермер начинает новую жизнь в просторном съемном лофте. Недорогая квартира оказывается настолько хороша, что Джулия не может поверить своему счастью. Вскоре, однако, она начинает подозревать, что не одна в собственном доме. С ужасом она осознает, что симпатичный домовладелец Макс избрал ее для своей маниакальной игры в кошки-мышки.




Видео: 984 x 418 (2.354), 23.976 fps, AVC, High@L3.1, х264, ~ 1 850 Kbps Kbps, 0.188 bit/pixel
Аудио: 48 kHz, AC3 Dolby Digital, 3/2 (L,C,R,l,r) + LFE ch, ~384 kbps

General
Unique ID: 244037882158017884787021018874385386464 (0xB797FC8A09CCD133B8D49C3FC73DCBE0)
Complete name: E:\РЕЛИЗЫ\Все релизы 13\lovushka_[tfile.ru].mkv
Format: Matroska
File size: 1.45 GiB
Duration: 1h 31mn
Overall bit rate: 2 280 Kbps
Movie name: Ловушка / The Resident (2011) HDRip-AVC от FireBit
Encoded date: UTC 2011-02-11 10:53:46
Writing application: mkvmerge v2.3.0 ('Freak U') built on Sep8 2008 18:32:16
Writing library: libebml v0.7.7 + libmatroska v0.8.1

Video
ID: 1
Format: AVC
Format/Info: Advanced Video Codec
Format profile: High@L3.1
Format settings, CABAC: Yes
Format settings, ReFrames: 4 frames
Codec ID: V_MPEG4/ISO/AVC
Duration: 1h 31mn
Bit rate: 1 850 Kbps
Width: 984 pixels
Height: 418 pixels
Display aspect ratio: 2.35:1
Frame rate: 23.976 fps
Color space: YUV
Chroma subsampling: 4:2:0
Bit depth: 8 bits
Scan type: Progressive
Bits/(Pixel*Frame): 0.188
Stream size: 1.18 GiB (81%)
Language: English

Audio
ID: 2
Format: AC-3
Format/Info: Audio Coding 3
Mode extension: CM (complete main)
Codec ID: A_AC3
Duration: 1h 31mn
Bit rate mode: Constant
Bit rate: 384 Kbps
Channel(s): 6 channels
Channel positions: Front: L C R, Side: L R, LFE
Sampling rate: 48.0 KHz
Bit depth: 16 bits
Compression mode: Lossy
Delay relative to video: 13ms
Stream size: 250 MiB (17%)
Language: Russian

Text
ID: 3
Format: UTF-8
Codec ID: S_TEXT/UTF8
Codec ID/Info: UTF-8 Plain Text
Language: English


















реклама партнёра


Вернуться к началу
 Профиль Отправить личное сообщение  
 
   Похожие торренты   Автор   Торрент   Размер 
В этой теме нет новых непрочитанных сообщений. Ловушка для Золушки / Trap for Cinderella [триллер, драма, криминал, 2013] HDRip, Mvo

Dracon

218 | 20

1.46 ГБ

В этой теме нет новых непрочитанных сообщений. Кровавая ловушка / Blood Trap / Bite [ужасы, боевик, триллер, криминал, 2016] HDRip. avo

marya111

0 | 0

1.37 ГБ

В этой теме нет новых непрочитанных сообщений. Ловушка / The Catch [S01] [триллер, драма, криминал, 2016] WEB-DL 720p, Mvo [Baibako]

salma3

110 | 35

14.27 ГБ

В этой теме нет новых непрочитанных сообщений. Ловушка / The Catch [S01] [триллер, драма, криминал, 2016] WEB-DLRip, Mvo [Baibako]

salma3

229 | 96

5.58 ГБ

В этой теме нет новых непрочитанных сообщений. Ловушка / The Catch [S01] [триллер, драма, криминал, 2016] WEB-DL 1080p, Mvo [Baibako]

salma3

50 | 72

17.66 ГБ

В этой теме нет новых непрочитанных сообщений. Ловушка для Золушки / Trap for Cinderella [триллер, драма, криминал, 2013] BDRip 1080p, Mvo+Sub

Dracon

0 | 3

7.78 ГБ

В этой теме нет новых непрочитанных сообщений. Ловушка для Золушки / Trap for Cinderella [Триллер, Драма, Криминал, 2013] BDRip 720p, Mvo

Dracon

65 | 8

4.5 ГБ


Начать новую тему Ответить на тему  [ 1 сообщение ] 




Для Мосгорсуда, Роскомнадзора и рекламодателей:: mosgorsud-torrent[собачка]yandex.ru