Торрент файл
скачать торрент магнет ссылка Добавлен: 25 май 2011, 08:42
Размер: 868.7 МБ
Сидеров: 3
Личеров: 5
Автор

СообщениеДобавлено: 25 май 2011, 08:42 

Не в сети
Супермодератор
Аватара пользователя
Дата регистрации:
22 май 2010, 11:03
Возраст: 32
Спасибо: 7690 / 13
Сообщения: 49871
Соседка по комнате / The Roommate

Перевод: Любительский (двухголосый), cубтитры: отсутствуют
Формат: DVDRip-AVC, MKV, H.264, MP3
Страна: США
Режиссер: Кристиан Е. Кристиансен
Жанр: триллер, драма
Продолжительность: 01:31:16
Год выпуска: 2011

В ролях: Лейтон Мистер, Минка Келли, Кэм Жиганде, Элисон Мичалка, Дэннил Харрис, Фрэнсис Фишер, Томас Арана, Билли Зейн, Нина Добрев, Мэтт Лантер.

Описание: Выпускница Сара поступает в колледж. Там она знакомится со своей новой соседкой по комнате — Ребеккой. Девушки становятся настоящими подругами. Однако позже у Сары появляются новые друзья и молодой человек, вследствие чего девушка забывает про Ребекку. Вскоре с друзьями Сары начинают происходить несчастные случаи. После собственного расследования Сара понимает, что все ужасные события, происходящие с ее друзьями — это дело рук Ребекки, которая, как оказалось, страдает психическими расстройствами. Теперь ей нужно спасаться как можно скорее, ведь кто знает, что взбредет в голову ее соседке…



Видео: 1 280x528 (2.40:1), 23.976 fps, V_MPEG4/ISO/ASP ~1 176 kbps avg, 0.073 bit/pixel
Аудио:44.1, MPEG Layer 3, 2 channels, ~128 kbps


General
Unique ID: 324984674043917224184567186068380108212 (0xF47DC58263497BA81869A5D5A838C5B4)
Complete name: C:\Documents and Settings\Admin.MICROSOF-42B712\Мои документы\Downloads\Новинки\Соседка по комнате.2011.RUS.BDRip 720p.XviD.AC3.(ORDY - Release)_New.mkv
Format: Matroska
File size: 869 MiB
Duration: 1h 31mn
Overall bit rate: 1 331 Kbps
Writing application: Axara Ltd.
Writing library: Axara Ltd.

Video
ID: 1
Format: MPEG-4 Visual
Codec ID: V_MPEG4/ISO/ASP
Codec ID/Info: Advanced Simple Profile
Duration: 1h 31mn
Bit rate: 1 176 Kbps
Width: 1 280 pixels
Height: 528 pixels
Display aspect ratio: 2.40:1
Frame rate mode: Constant
Frame rate: 23.976 fps
Compression mode: Lossy
Bits/(Pixel*Frame): 0.073
Stream size: 768 MiB (88%)
Language: English

Audio
ID: 2
Format: MPEG Audio
Format version: Version 1
Format profile: Layer 3
Mode: Joint stereo
Mode extension: MS Stereo
Codec ID: A_MPEG/L3
Codec ID/Hint: MP3
Duration: 1h 31mn
Bit rate mode: Constant
Bit rate: 128 Kbps
Channel(s): 2 channels
Sampling rate: 44.1 KHz
Bit depth: 16 bits
Compression mode: Lossy
Stream size: 83.6 MiB (10%)
Writing library: LAME3.97
Language: English










реклама партнёра


Вернуться к началу
 Профиль Отправить личное сообщение  
 
   Похожие торренты   Автор   Торрент   Размер 
В этой теме нет новых непрочитанных сообщений. My Hot Roommate #8 / Моя Горячая Соседка #8 (Reality Kings) [2015 г., Legal Teen, BJ, Gonzo, Hardcore, All Sex, DVDRip, 400p]

friizze

2 | 2

2.8 ГБ

В этой теме нет новых непрочитанных сообщений. French Roommate / Французская Соседка (Barbara Doll, Channel 69) [1995 г., Features, Anal, DVDRip] Kim Chambers, Channone

salma3

15 | 5

681.54 МБ

В этой теме нет новых непрочитанных сообщений. Рука Дьявола / Where the Devil Hides (Кристиан Е. Кристиансен) [триллер, 2014] HDRip, dub [Чистый звук]

Dracon

11 | 0

1.36 ГБ

В этой теме нет новых непрочитанных сообщений. Рука Дьявола / Where the Devil Hides (Кристиан Е. Кристиансен) [триллер, 2014] BDRip 1080p, dub [Чистый звук]

Dracon

15 | 1

6.67 ГБ

В этой теме нет новых непрочитанных сообщений. Соседи по комнате / Roommates [Драма, комедия, 1995] DVDRip, Mvo

salma3

26 | 3

1.36 ГБ

В этой теме нет новых непрочитанных сообщений. Я еду одна / Jeg reiser alene (I Travel Alone) (Стиан Кристиансен / Stian Kristiansen) [2011г., Норвегия, драма, DVDRip] avo

Alfredovich

4 | 2

700.05 МБ

В этой теме нет новых непрочитанных сообщений. Требуется сосед / Roommate Wanted [триллер, 2015] HDRip, Mvo

salma3

357 | 158

1.37 ГБ


Начать новую тему Ответить на тему  [ 1 сообщение ] 




Для Мосгорсуда, Роскомнадзора и рекламодателей:: mosgorsud-torrent[собачка]yandex.ru