Торрент файл
скачать торрент магнет ссылка Добавлен: 25 май 2011, 08:41
Размер: 2.18 ГБ
Сидеров: 0
Личеров: 3
Автор

СообщениеДобавлено: 25 май 2011, 08:41 

Не в сети
Супермодератор
Аватара пользователя
Дата регистрации:
22 май 2010, 11:03
Возраст: 31
Спасибо: 7513 / 13
Сообщения: 49940
В упор / A bout portant

Перевод: Любительский (одноголосый), cубтитры: русские, английские
Формат: HDRip-AVC, MKV, H.264, AC3
Страна: Франция
Режиссер: Фред Кавайе
Жанр: триллер
Продолжительность: 01:24:01
Год выпуска: 2010

В ролях: Жилль Лелуш, Рошди Зем, Жерар Ланвен, Елена Анайя, Мирей Перье, Клер Перо, Мусса Мааскри, Пьер Бенуа, Валери Дэшвуд, Вёрджил Брэмли

Описание: Профессия Сэмюэля Перрье — спасать людей. Но в этот раз медбрат спас ну совсем «не того» парня. И вот теперь его беременную жену похитили бандиты, чтоб заставить Сэмюэля помочь их пахану свалить из больницы. Чтобы спасти жену и выжить самому, ему предстоит выиграть смертельные гонки на выживание с бандитами и полицейскими не только по улицам Парижа но и под землей.



Видео: 1024x432 (2.35:1), 24.000 fps, AVC, High@L4.1, х264, ~2826 kbps, 0.266 bits/pixel
Аудио: #1: русский 48 kHz, AC3 Dolby Digital, 3/2 (L,C,R,l,r) + LFE ch, ~448 kbps [Любительский (одноголосый)]
Аудио: #2: французский 48 kHz, AC3 Dolby Digital, 3/2 (L,C,R,l,r) + LFE ch, ~448 kbps [Оригинал]
General
Unique ID: 187434354044474888710308943788623877133 (0x8D028B233775CC75A78F13601CD5540D)
Complete name: E:\РЕЛИЗЫ\Все релизы 13\v_upor_[tfile.ru].mkv
Format: Matroska
File size: 2.18 GiB
Duration: 1h 24mn
Overall bit rate: 3 718 Kbps
Movie name: V upor.chopper887
Encoded date: UTC 2011-04-25 14:35:13
Writing application: mkvmerge v4.4.0 ('Die Wiederkehr') built on Nov7 2010 22:17:07
Writing library: libebml v1.0.0 + libmatroska v1.0.0

Video
ID: 1
Format: AVC
Format/Info: Advanced Video Codec
Format profile: High@L4.1
Format settings, CABAC: Yes
Format settings, ReFrames: 10 frames
Muxing mode: Header stripping
Codec ID: V_MPEG4/ISO/AVC
Duration: 1h 24mn
Bit rate: 2 826 Kbps
Width: 1 024 pixels
Height: 432 pixels
Display aspect ratio: 2.35:1
Frame rate: 24.000 fps
Color space: YUV
Chroma subsampling: 4:2:0
Bit depth: 8 bits
Scan type: Progressive
Bits/(Pixel*Frame): 0.266
Stream size: 1.61 GiB (74%)
Title: V upor.chopper887
Writing library: x264 core 114 r1924 08d04a4
Encoding settings: cabac=1 / ref=10 / deblock=1:-2:-1 / analyse=0x3:0x133 / me=umh / subme=9 / psy=1 / psy_rd=1.00:0.10 / mixed_ref=1 / me_range=32 / chroma_me=1 / trellis=2 / 8x8dct=1 / cqm=0 / deadzone=21,11 / fast_pskip=0 / chroma_qp_offset=-3 / threads=3 / sliced_threads=0 / nr=0 / decimate=1 / interlaced=0 / constrained_intra=0 / bframes=8 / b_pyramid=2 / b_adapt=2 / b_bias=0 / direct=3 / weightb=1 / open_gop=0 / weightp=2 / keyint=250 / keyint_min=24 / scenecut=40 / intra_refresh=0 / rc_lookahead=80 / rc=2pass / mbtree=1 / bitrate=2826 / ratetol=1.0 / qcomp=0.70 / qpmin=0 / qpmax=69 / qpstep=4 / cplxblur=20.0 / qblur=0.5 / ip_ratio=1.40 / aq=1:1.00
Language: English

Audio #1
ID: 2
Format: AC-3
Format/Info: Audio Coding 3
Mode extension: CM (complete main)
Muxing mode: Header stripping
Codec ID: A_AC3
Duration: 1h 24mn
Bit rate mode: Constant
Bit rate: 448 Kbps
Channel(s): 6 channels
Channel positions: Front: L C R, Side: L R, LFE
Sampling rate: 48.0 KHz
Bit depth: 16 bits
Compression mode: Lossy
Stream size: 269 MiB (12%)
Title: Любительский - Demon

Audio #2
ID: 3
Format: AC-3
Format/Info: Audio Coding 3
Mode extension: CM (complete main)
Muxing mode: Header stripping
Codec ID: A_AC3
Duration: 1h 24mn
Bit rate mode: Constant
Bit rate: 448 Kbps
Channel(s): 6 channels
Channel positions: Front: L C R, Side: L R, LFE
Sampling rate: 48.0 KHz
Bit depth: 16 bits
Compression mode: Lossy
Stream size: 269 MiB (12%)
Title: Французский

Text #1
ID: 4
Format: UTF-8
Codec ID: S_TEXT/UTF8
Codec ID/Info: UTF-8 Plain Text
Title: Русские

Text #2
ID: 5
Format: UTF-8
Codec ID: S_TEXT/UTF8
Codec ID/Info: UTF-8 Plain Text
Title: Английские























реклама партнёра


Вернуться к началу
 Профиль Отправить личное сообщение  
 
   Похожие торренты   Автор   Торрент   Размер 
В этой теме нет новых непрочитанных сообщений. Моя вина / Mea culpa (Фред Кавайе) [боевик, триллер, 2014] HDRip, Mvo [Лицензия]

Dracon

3 | 3

702.14 МБ

В этой теме нет новых непрочитанных сообщений. Моя вина / Mea culpa (Фред Кавайе) [боевик, триллер, 2014] HDRip, Mvo [Лицензия]

Dracon

7 | 3

1.37 ГБ

В этой теме нет новых непрочитанных сообщений. Моя вина / Mea culpa (Фред Кавайе) [боевик, триллер, 2014] BDRip 720p, Mvo [Лицензия]

Dracon

4 | 2

4.65 ГБ

В этой теме нет новых непрочитанных сообщений. Моя вина  / Mea culpa (Фред Кавайе) [боевик, триллер, 2014] BDRip 1080p, Mvo [Лицензия]

Dracon

10 | 2

6.84 ГБ

В этой теме нет новых непрочитанных сообщений. Выстрел в упор / Body Shot [Триллер, 1994] DVDRip, Avo

salma3

144 | 39

1.45 ГБ

В этой теме нет новых непрочитанных сообщений. В упор / At Close Range [драма, криминал, 1986] BDRip 1080p, Mvo+Dvo+Avo+Sub

salma3

36 | 1

8.92 ГБ

В этой теме нет новых непрочитанных сообщений. Сопротивление воздуха / La résistance de l'air (Фред Гривуа / Fred Grivois) [2015г., Франция, боевик, драма, HDRip] DVO

Alfredovich

28 | 8

1.47 ГБ


Начать новую тему Ответить на тему  [ 1 сообщение ] 




Для Мосгорсуда, Роскомнадзора и рекламодателей:: mosgorsud-torrent[собачка]yandex.ru