Торрент файл
скачать торрент магнет ссылка Добавлен: 25 май 2011, 08:38
Размер: 1.46 ГБ
Сидеров: 33
Личеров: 4
Автор

СообщениеДобавлено: 25 май 2011, 08:38 

Не в сети
Супермодератор
Аватара пользователя
Дата регистрации:
22 май 2010, 11:03
Возраст: 31
Спасибо: 7509 / 13
Сообщения: 49940
13 / 13

Перевод: Профессиональный (полное дублирование) [Лицензия], cубтитры: отсутствуют
Формат: HDRip-AVC *PROPER*, MKV, AVC, AC3
Страна: США

Режиссер: Гела Баблуани
Жанр: триллер, драма
Продолжительность: 01:37:12

Год выпуска: 2010
В ролях: Джейсон Стэтхэм, Микки Рурк, Сэм Райли, Александр Скарсгард, Рэй Уинсон, Кёртис "50 Cent" Джексон, Эммануэль Шрики, Майкл Шеннон, Дэвид Зайас, Гэби Хоффманн, Наташа Лионни

Описание: Главный герой, молодой и наивный Винс, случайно узнает быстрый способ разбогатеть. Плевое дело — в точности выполнить инструкции, которые придут по почте в полосатом конверте. После того, как предполагаемый получатель письма умирает от сердечного приступа, парень решается на авантюру. Он выдает себя за покойного, не подозревая, что ввязывается в смертельно опасную игру. В погоне за легкими деньгами герой попадает на подпольный тотализатор по русской рулетке. Ему придется спустить курок — из 13 человек выживут трое.



Видео: 1024x428 (2,35:1), 24.000 fps, AVC ( High@L4.1 ), 1758 kb/s, 0.167 bit/pixel
Аудио: 48 KHz, AC3 Dolby Digital, 6 channels, 384 kb/s, 3/2 (L,C,R,l,r) + LFE ch

Доп. информация: HDRip-AVC [Исх. BDRip 1080p]







Формат: Matroska
Размер файла: 1,46 Гбайт
Продолжительность: 1 ч. 37 м.
Общий поток: 2143 Кбит/сек
Название фильма: 13 (2010) Release by Vaippp [OpenSharing Team]
Дата кодирования: UTC 2011-04-09 04:27:13
Программа кодирования: mkvmerge v4.6.0 ('Still Crazy After All These Years') сборка от Mar 10 2011 02:50:32
Библиотека кодирования: libebml v1.2.0 + libmatroska v1.1.0

Видео
Идентификатор: 1
Формат: AVC
Формат/Информация: Advanced Video Codec
Профиль формата: High@L4.1
Параметр CABAC формата: Да
Параметр ReFrames формата: 9 кадров
Идентификатор кодека: V_MPEG4/ISO/AVC
Продолжительность: 1 ч. 37 м.
Битрейт: 1758 Кбит/сек
Ширина: 1024 пикс.
Высота: 428 пикс.
Соотношение сторон: 2,35:1
Частота кадров: 24,000 кадр/сек
Цветовое пространство: YUV
Подвыборка цветности: 4:2:0
Битовая глубина: 8 бит
Тип развёртки: Прогрессивная
Бит/(Пиксели*Кадры): 0.167
Размер потока: 1,17 Гбайт (80%)
Заголовок: HDRip by Vaippp
Библиотека кодирования: x264 core 114 r1913 5fd3dce
Настройки программы: cabac=1 / ref=9 / deblock=1:-2:-1 / analyse=0x3:0x133 / me=umh / subme=9 / psy=1 / psy_rd=1.00:0.13 / mixed_ref=1 / me_range=32 / chroma_me=1 / trellis=2 / 8x8dct=1 / cqm=0 / deadzone=21,11 / fast_pskip=0 / chroma_qp_offset=-3 / threads=4 / sliced_threads=0 / nr=0 / decimate=1 / interlaced=0 / constrained_intra=0 / bframes=8 / b_pyramid=2 / b_adapt=2 / b_bias=0 / direct=3 / weightb=1 / open_gop=0 / weightp=2 / keyint=250 / keyint_min=23 / scenecut=40 / intra_refresh=0 / rc_lookahead=40 / rc=2pass / mbtree=0 / bitrate=1758 / ratetol=1.0 / qcomp=0.60 / qpmin=10 / qpmax=51 / qpstep=4 / cplxblur=20.0 / qblur=0.5 / vbv_maxrate=50000 / vbv_bufsize=62500 / nal_hrd=none / ip_ratio=1.40 / pb_ratio=1.30 / aq=1:0.90 / zones=131391,139967,q=35
Язык: English

Аудио
Идентификатор: 2
Формат: AC-3
Формат/Информация: Audio Coding 3
Расширение режима: CM (complete main)
Идентификатор кодека: A_AC3
Продолжительность: 1 ч. 37 м.
Вид битрейта: Постоянный
Битрейт: 384 Кбит/сек
Каналы: 6 каналов
Расположение каналов: Front: L C R, Side: L R, LFE
Частота: 48,0 КГц
Битовая глубина: 16 бит
Метод сжатия: С потерями
Размер потока: 267 Мбайт (18%)
Заголовок: DUB
Язык: Russian





реклама партнёра


Вернуться к началу
 Профиль Отправить личное сообщение  
 
   Похожие торренты   Автор   Торрент   Размер 
В этой теме нет новых непрочитанных сообщений. Человек ноября / The November Man (Роджер Дональдсон) [2014, Боевик, триллер, криминал, CAMRip *PROPER*] Dub

Nickolas3435

52 | 3

1.46 ГБ

В этой теме нет новых непрочитанных сообщений. Терминатор: Генезис / Terminator: Genisys (Алан Тейлор) [фантастика, боевик, триллер, приключения, 2015] CAMRip*PROPER*, dub

slawa4155

211 | 4

740.53 МБ

В этой теме нет новых непрочитанных сообщений. Хотел бы я быть здесь / Wish I Was Here (Зак Брафф) [2014, Драма, Комедия, TS | *PROPER*] Dub

Nickolas3435

80 | 13

1.37 ГБ

В этой теме нет новых непрочитанных сообщений. 300 спартанцев: Расцвет империи / 300: Rise of an Empire [боевик, драма, военный, 2014] CAMRip*PROPER*, dub

Dracon

57 | 3

1.37 ГБ

В этой теме нет новых непрочитанных сообщений. 47 ронинов / 47 Ronin [Фэнтези, боевик, приключения, 2013] TS *PROPER*, dub

Dracon

40 | 5

1.45 ГБ

В этой теме нет новых непрочитанных сообщений. Политики / Raajneeti [боевик, триллер, драма, криминал, 2010] HDRip, Mvo [КПК]

salma3

3 | 2

511.74 МБ

В этой теме нет новых непрочитанных сообщений. Великолепный / Столкновение / Adhurs [Боевик, триллер, драма, 2010] HDRip, Mvo

salma3

3 | 3

1.46 ГБ


Начать новую тему Ответить на тему  [ 1 сообщение ] 




Для Мосгорсуда, Роскомнадзора и рекламодателей:: mosgorsud-torrent[собачка]yandex.ru