Торрент файл
скачать торрент магнет ссылка Добавлен: 25 май 2011, 08:38
Размер: 743.39 МБ
Сидеров: 6
Личеров: 2
Автор

СообщениеДобавлено: 25 май 2011, 08:38 

Не в сети
Супермодератор
Аватара пользователя
Дата регистрации:
22 май 2010, 11:03
Возраст: 31
Спасибо: 7509 / 13
Сообщения: 49940


[b]Треугольник / Triangle[/b]


Перевод: профессиональный (многоголосый закадровый)
Субтитры: отсутствуют
Формат: LowHDRip-AVC, MKV, H.264, AC3
Страна: Великобритания, Австралия
Режиссер: Кристофер Смит
Жанр: триллер, драма, детектив
Продолжительность: 01:38:51
Год выпуска: 2009

В ролях: Мелисса Джордж, Джошуа Макивор (II), Джек Тейлор (XXIV), Майкл Дорман, Генри Никсон, Рейчал Карпани, Эмма Ланг, Лайэм Хемсворт

Описание: Джесс, молодая мать-одиночка, принимает приглашение провести день на яхте в кругу своих друзей. Внезапно начавшийся шторм переворачивает судно, и оставшиеся в живых вынуждены дожидаться помощи, цепляясь за перевернутый корпус яхты. Спасение приходит в виде огромного океанического лайнера. Корабль оказывается пустым, часы на борту остановились. Но они здесь не одни — за ними кто-то постоянно наблюдает…







Видео: 640x272 (2.35:1), 24.000 fps, MPEG-4 AVC (x264), High@L5.1, ~921 kbps avg, 0.22 bit/pixel

Аудио: 48 kHz, AC3 Dolby Digital, 3/2 (L,C,R,l,r) + LFE ch, ~128 kbps avg

Релиз-Группа




Общее
Уникальный идентификатор: 190208649526902701058425252528809914652 (0x8F18DA77258388AE9AC7BFB8BE55311C)
Полное имя: D:\treugol`nik_[tfile.ru].mkv
Формат: Matroska
Размер файла: 743 Мбайт
Продолжительность: 1 ч. 38 м.
Общий поток: 1051 Кбит/сек
Дата кодирования: UTC 2011-05-11 03:57:28
Программа кодирования: mkvmerge v3.3.0 ('Language') built on Mar 24 2010 14:59:24
Библиотека кодирования: libebml v0.8.0 + libmatroska v0.9.0

Видео
Идентификатор: 1
Формат: AVC
Формат/Информация: Advanced Video Codec
Профиль формата: High@L5.1
Параметр CABAC формата: Да
Параметр ReFrames формата: 4 кадры
Идентификатор кодека: V_MPEG4/ISO/AVC
Продолжительность: 1 ч. 38 м.
Битрейт: 921 Кбит/сек
Ширина: 640 пикс.
Высота: 272 пикс.
Соотношение сторон: 2,35:1
Частота кадров: 24,000 кадр/сек
Цветовое пространство: YUV
Подвыборка цветности: 4:2:0
Битовая глубина: 8 бит
Тип развёртки: Прогрессивная
Бит/(Пиксели*Кадры): 0.220
Размер потока: 638 Мбайт (86%)
Библиотека кодирования: x264 core 92 r1510 33d382a
Настройки программы: cabac=1 / ref=3 / deblock=1:0:0 / analyse=0x3:0x113 / me=hex / subme=7 / psy=1 / psy_rd=1.00:0.00 / mixed_ref=1 / me_range=16 / chroma_me=1 / trellis=1 / 8x8dct=1 / cqm=0 / deadzone=21,11 / fast_pskip=1 / chroma_qp_offset=-2 / threads=3 / sliced_threads=0 / nr=0 / decimate=1 / interlaced=0 / constrained_intra=0 / bframes=3 / b_pyramid=2 / b_adapt=1 / b_bias=0 / direct=3 / wpredb=1 / wpredp=2 / keyint=250 / keyint_min=25 / scenecut=40 / intra_refresh=0 / rc_lookahead=40 / rc=2pass / mbtree=1 / bitrate=921 / ratetol=1.0 / qcomp=0.60 / qpmin=10 / qpmax=51 / qpstep=4 / cplxblur=20.0 / qblur=0.5 / ip_ratio=1.40 / aq=1:1.00

Аудио
Идентификатор: 2
Формат: AC-3
Формат/Информация: Audio Coding 3
Расширение режима: CM (complete main)
Идентификатор кодека: A_AC3
Продолжительность: 1 ч. 38 м.
Вид битрейта: Постоянный
Битрейт: 128 Кбит/сек
Канал(ы): 6 канала(ов)
Расположение каналов: Front: L C R, Side: L R, LFE
Частота: 48,0 КГц
Битовая глубина: 16 бит
Метод сжатия: С потерями
Размер потока: 90,5 Мбайт (12%)






















реклама партнёра


Вернуться к началу
 Профиль Отправить личное сообщение  
 
   Похожие торренты   Автор   Торрент   Размер 
В этой теме нет новых непрочитанных сообщений. Бермудский треугольник / The Bermuda Triangle [мистика, 1978] DVDRip, Mvo

salma3

259 | 19

1.36 ГБ

В этой теме нет новых непрочитанных сообщений. В погоне за тенями  / Chasing Shadows [Season 1, Episodes 1-4 of 4] (Кристофер Менол) [Драма, Детектив, Криминал, Триллер, 2014] WEB-DLRip [BaibaKo]

Dracon

5 | 3

2.4 ГБ

В этой теме нет новых непрочитанных сообщений. Фатерлянд / Родина (Кристофер Менол / Christopher Menaul) [1994г., триллер, детектив, драма, альтернативная история, антиутопия, экранизация, DVDRip] DUB

Alfredovich

0 | 3

1.38 ГБ

В этой теме нет новых непрочитанных сообщений. Восприятие / Perception [03x01-02 из 15] (Грег Биман, Деран Сарафян, Кристофер Мисиано) [2014, триллер, драма, криминал, детектив, WEB-DLRip | To4ka]

Nickolas3435

118 | 28

901.02 МБ

В этой теме нет новых непрочитанных сообщений. Волшебники / The Magicians [01x01-05 из 10] (Скотт Смит, Майк Кэхилл, Ян Элиасберг) [2015, ужасы, фэнтези, драма, детектив, HDTVRip | Jaskier]

Dracon

23 | 22

2.96 ГБ

В этой теме нет новых непрочитанных сообщений. Волшебники / The Magicians [01x01-02 из 10] (Джеймс Л. Конуэй, Скотт Смит, Гай Норман Би) [2015, ужасы, фэнтези, драма, детектив, HDTVRip | BaibaKo]

Dracon

30 | 17

1.24 ГБ

В этой теме нет новых непрочитанных сообщений. Безумные / The Demented (Кристофер Рузвельт) [ужасы, триллер, драма, 2013] HDRip, Mvo

Dracon

105 | 29

1.46 ГБ


Начать новую тему Ответить на тему  [ 1 сообщение ] 




Для Мосгорсуда, Роскомнадзора и рекламодателей:: mosgorsud-torrent[собачка]yandex.ru