Торрент файл
скачать торрент магнет ссылка Добавлен: 25 май 2011, 08:37
Размер: 1.98 ГБ
Сидеров: 63
Личеров: 3
Автор

СообщениеДобавлено: 25 май 2011, 08:37 

Не в сети
Супермодератор
Аватара пользователя
Дата регистрации:
22 май 2010, 11:03
Возраст: 31
Спасибо: 7509 / 13
Сообщения: 49940
Райское озеро / Eden Lake

Перевод: Профессиональный (полное дублирование), cубтитры: отсутствуют
Формат: HDRip-AVC, MKV, H.264, AC3
Страна: США
Режиссер: Джеймс Уоткинс
Жанр: триллер, криминал
Продолжительность: 01:31:01
Год выпуска: 2008

В ролях: Келли Райлли, Майкл Фассбендер, Тара Эллис, Джек О`Коннелл, Финн Аткинс, Джумэйн Хантер, Томас Тургус, Джеймс Берроуз, Томас Гилл, Лоррэйн Брюс

Описание: Молодая парочка едет за город, чтобы провести романтический уикенд на берегу Райского озера вдали от людей, в диком лесу. Стив и Дженни планируют пожениться, прожить долго и умереть в один день. Никто из них не думал, чем закончится эта поездка.



Видео: 1280 x 544 (2.349), 24.000 fps, AVC, High@L4.1, х264, ~ 2 770 Kbps Kbps, 0.166 bit/pixel
Аудио: 48 kHz, AC3 Dolby Digital, 3/2 (L,C,R,l,r) + LFE ch, ~384 kbps

General
Unique ID: 197839826707419130646316890803452586627 (0x94D6908C901BCD008A531660EAF92A83)
Complete name: E:\РЕЛИЗЫ\Все релизы 15\raiskoe_ozero_[tfile.ru].mkv
Format: Matroska
File size: 1.98 GiB
Duration: 1h 30mn
Overall bit rate: 3 115 Kbps
Movie name: Rip by Romeo (FLINTFILMS.RU)
Encoded date: UTC 2010-06-07 21:29:31
Writing application: mkvmerge v3.0.0 ('Hang up your Hang-Ups') built on Dec 12 2009 15:20:35
Writing library: libebml v0.7.9 + libmatroska v0.8.1

Video
ID: 1
Format: AVC
Format/Info: Advanced Video Codec
Format profile: High@L4.1
Format settings, CABAC: Yes
Format settings, ReFrames: 3 frames
Codec ID: V_MPEG4/ISO/AVC
Duration: 1h 30mn
Bit rate mode: Variable
Bit rate: 2 770 Kbps
Maximum bit rate: 17.5 Mbps
Width: 1 280 pixels
Height: 544 pixels
Display aspect ratio: 2.35:1
Original display aspect ratio: 2.35:1
Frame rate: 24.000 fps
Color space: YUV
Chroma subsampling: 4:2:0
Bit depth: 8 bits
Scan type: Progressive
Bits/(Pixel*Frame): 0.166
Stream size: 1.70 GiB (86%)
Title: Райское озеро.[flintfilms.ru]
Writing library: x264 core 96 r1613 81e75e9
Encoding settings: cabac=1 / ref=1 / deblock=1:0:0 / analyse=0x3:0x3 / me=dia / subme=1 / psy=1 / psy_rd=0.00:0.00 / mixed_ref=0 / me_range=16 / chroma_me=1 / trellis=0 / 8x8dct=1 / cqm=0 / deadzone=21,11 / fast_pskip=1 / chroma_qp_offset=0 / threads=6 / sliced_threads=0 / slices=4 / nr=0 / decimate=1 / interlaced=0 / constrained_intra=0 / bframes=3 / b_pyramid=1 / b_adapt=1 / b_bias=0 / direct=1 / weightb=1 / weightp=0 / keyint=24 / keyint_min=1 / scenecut=40 / intra_refresh=0 / rc_lookahead=24 / rc=abr / mbtree=0 / bitrate=2770 / ratetol=1.0 / qcomp=0.60 / qpmin=0 / qpmax=51 / qpstep=4 / vbv_maxrate=17500 / vbv_bufsize=14500 / ip_ratio=1.10 / pb_ratio=1.10 / aq=1:1.00 / nal_hrd=vbr
Language: English

Audio
ID: 2
Format: AC-3
Format/Info: Audio Coding 3
Mode extension: CM (complete main)
Codec ID: A_AC3
Duration: 1h 30mn
Bit rate mode: Constant
Bit rate: 384 Kbps
Channel(s): 6 channels
Channel positions: Front: L C R, Side: L R, LFE
Sampling rate: 48.0 KHz
Bit depth: 16 bits
Compression mode: Lossy
Delay relative to video: 1s 27ms
Stream size: 250 MiB (12%)
Title: Профессиональный (полное дублирование)
Language: Russian






















реклама партнёра


Вернуться к началу
 Профиль Отправить личное сообщение  
 
   Похожие торренты   Автор   Торрент   Размер 
В этой теме нет новых непрочитанных сообщений. Черное озеро / Озеро нуар / Lake noir [ужасы, драма 2013] WEB-DLRip, avo

Dracon

14 | 7

1.37 ГБ

В этой теме нет новых непрочитанных сообщений. Черное озеро / Озеро нуар / Lake noir [ужасы, драма, 2013] WEB-DL 720p, Avo

salma3

0 | 3

2.68 ГБ

В этой теме нет новых непрочитанных сообщений. Заколдованное озеро  / Wicked Lake [Ужасы, 2008] DVDRip, Dvo

salma3

0 | 2

1.36 ГБ

В этой теме нет новых непрочитанных сообщений. Акулье озеро / Shark Lake [триллер, 2015] WEB-DLRip, Dvo

salma3

3328 | 538

1.46 ГБ

В этой теме нет новых непрочитанных сообщений. Акулье озеро / Shark Lake [триллер, 2015] WEB-DL 720p, Dvo

salma3

1135 | 197

2.88 ГБ

В этой теме нет новых непрочитанных сообщений. Озеро Эри / Lake Eerie [Ужасы, фантастика, триллер, 2016] WEBRip, dvo

marya111

112 | 0

736.24 МБ

В этой теме нет новых непрочитанных сообщений. Ясное озеро / Clear Lake, WI [триллер, 2009] HDTV 1080i, Mvo

salma3

7 | 2

4.82 ГБ


Начать новую тему Ответить на тему  [ 1 сообщение ] 




Для Мосгорсуда, Роскомнадзора и рекламодателей:: mosgorsud-torrent[собачка]yandex.ru