Торрент файл
скачать торрент магнет ссылка Добавлен: 25 май 2011, 08:36
Размер: 1.47 ГБ
Сидеров: 46
Личеров: 7
Автор

СообщениеДобавлено: 25 май 2011, 08:36 

Не в сети
Супермодератор
Аватара пользователя
Дата регистрации:
22 май 2010, 11:03
Возраст: 31
Спасибо: 7524 / 13
Сообщения: 49940
Соседка по комнате / The Roommate

Перевод: Профессиональный (многоголосый, закадровый) [Лицензия]
Субтитры: Есть (английские, русские)
Формат: HDRip-AVC, MKV, AVC, AC3

Страна: США
Режиссер: Кристиан Е. Кристиансен
Жанр: триллер, драма

Продолжительность: 01:31:16
Год выпуска: 2011
В ролях: Лейтон Мистер, Минка Келли, Кэм Жиганде, Элисон Мичалка, Дэннил Харрис, Фрэнсис Фишер, Томас Арана, Билли Зейн, Нина Добрев, Мэтт Лантер

Описание: Выпускница Сара поступает в колледж. Там она знакомится со своей новой соседкой по комнате — Ребеккой. Девушки становятся настоящими подругами. Однако позже у Сары появляются новые друзья и молодой человек, вследствие чего девушка забывает про Ребекку. Вскоре с друзьями Сары начинают происходить несчастные случаи. После собственного расследования Сара понимает, что все ужасные события, происходящие с ее друзьями — это дело рук Ребекки, которая, как оказалось, страдает психическими расстройствами. Теперь ей нужно спасаться как можно скорее, ведь кто знает, что взбредет в голову ее соседке...



Видео: 1280x528 (2,40:1), 23.976 fps, AVC ( High@L4.1 ), 2318 Кбит/сек, 0,116 bit/pixel
Аудио: 48,0 KHz, AC3 Dolby Digital, 6 channels, 384 Кбит/сек









Формат: Matroska
Размер файла: 1,47 Гбайт
Продолжительность: 1 ч. 31 м.
Общий поток: 2318 Кбит/сек
Название фильма: Соседка по комнате / The Roommate (2011) BDRip 720p от FireBit
Дата кодирования: UTC 2011-05-18 09:29:23
Программа кодирования: mkvmerge v2.3.0 ('Freak U') built on Sep8 2008 18:32:16
Библиотека кодирования: libebml v0.7.7 + libmatroska v0.8.1

Видео
Идентификатор: 1
Формат: AVC
Формат/Информация: Advanced Video Codec
Профиль формата: High@L4.1
Параметр CABAC формата: Да
Параметр ReFrames формата: 3 кадра
Идентификатор кодека: V_MPEG4/ISO/AVC
Продолжительность: 1 ч. 31 м.
Битрейт: 1888 Кбит/сек
Ширина: 1280 пикс.
Высота: 528 пикс.
Соотношение сторон: 2,40:1
Частота кадров: 23,976 кадр/сек
Цветовое пространство: YUV
Подвыборка цветности: 4:2:0
Битовая глубина: 8 бит
Тип развёртки: Прогрессивная
Бит/(Пиксели*Кадры): 0.116
Размер потока: 1,20 Гбайт (81%)
Язык: English

Аудио
Идентификатор: 2
Формат: AC-3
Формат/Информация: Audio Coding 3
Расширение режима: CM (complete main)
Идентификатор кодека: A_AC3
Продолжительность: 1 ч. 31 м.
Вид битрейта: Постоянный
Битрейт: 384 Кбит/сек
Каналы: 6 каналов
Расположение каналов: Front: L C R, Side: L R, LFE
Частота: 48,0 КГц
Битовая глубина: 16 бит
Метод сжатия: С потерями
Задержка видео: 5 мс.
Размер потока: 250 Мбайт (17%)
Язык: Russian

Текст #1
Идентификатор: 3
Формат: UTF-8
Идентификатор кодека: S_TEXT/UTF8
Идентификатор кодека/Информация: UTF-8 Plain Text
Язык: English

Текст #2
Идентификатор: 4
Формат: UTF-8
Идентификатор кодека: S_TEXT/UTF8
Идентификатор кодека/Информация: UTF-8 Plain Text
Язык: Russian

Текст #3
Идентификатор: 5
Формат: UTF-8
Идентификатор кодека: S_TEXT/UTF8
Идентификатор кодека/Информация: UTF-8 Plain Text
Язык: English

Текст #4
Идентификатор: 6
Формат: UTF-8
Идентификатор кодека: S_TEXT/UTF8
Идентификатор кодека/Информация: UTF-8 Plain Text
Язык: English





реклама партнёра


Вернуться к началу
 Профиль Отправить личное сообщение  
 
   Похожие торренты   Автор   Торрент   Размер 
В этой теме нет новых непрочитанных сообщений. Рука Дьявола / Where the Devil Hides (Кристиан Е. Кристиансен) [триллер, 2014] HDRip, dub [Чистый звук]

Dracon

11 | 0

1.36 ГБ

В этой теме нет новых непрочитанных сообщений. Рука Дьявола / Where the Devil Hides (Кристиан Е. Кристиансен) [триллер, 2014] BDRip 1080p, dub [Чистый звук]

Dracon

15 | 1

6.67 ГБ

В этой теме нет новых непрочитанных сообщений. Рука Дьявола / Where the Devil Hides (Кристиан Е. Кристиансен) [Триллер, 2014] BDRip 720p, dub [Чистый звук]

Dracon

13 | 3

4.49 ГБ

В этой теме нет новых непрочитанных сообщений. My Hot Roommate #8 / Моя Горячая Соседка #8 (Reality Kings) [2015 г., Legal Teen, BJ, Gonzo, Hardcore, All Sex, DVDRip, 400p]

friizze

2 | 2

2.8 ГБ

В этой теме нет новых непрочитанных сообщений. Ночная бригада / The Night Crew (Кристиан Сесма) [боевик, триллер, 2015] HDRip, Mvo [iTunes]

Dracon

9099 | 340

1.37 ГБ

В этой теме нет новых непрочитанных сообщений. Требуется сосед / Roommate Wanted [триллер, 2015] DVDRip, Avo

salma3

615 | 60

1.04 ГБ

В этой теме нет новых непрочитанных сообщений. Жапплу / Jappeloup (Кристиан Дюге) [Драма, Спорт, 2013] HDRip, Mvo

Dracon

2 | 0

1.46 ГБ


Начать новую тему Ответить на тему  [ 1 сообщение ] 




Для Мосгорсуда, Роскомнадзора и рекламодателей:: mosgorsud-torrent[собачка]yandex.ru