Торрент файл
скачать торрент магнет ссылка Добавлен: 25 май 2011, 08:36
Размер: 2.06 ГБ
Сидеров: 0
Личеров: 2
Автор

СообщениеДобавлено: 25 май 2011, 08:36 

Не в сети
Супермодератор
Аватара пользователя
Дата регистрации:
22 май 2010, 11:03
Возраст: 31
Спасибо: 7508 / 13
Сообщения: 49940
Преступная любовь / Crime d'amour


Перевод: Любительский (одноголосый), cубтитры: отсутствуют
Формат: HDRip-AVC, MKV, H.264, AC3
Страна: Франция
Режиссер: Ален Корно
Жанр: триллер, криминал, детектив
Продолжительность: 01:46:18
Год выпуска: 2010

В ролях: Людивин Санье, Кристин Скотт Томас, Патрик Милле, Гийом Марке, Жеральд Ларош, Жюльен Рошфор, Оливье Рабурден, Мари Гийяр, Майк Пауэрс, Matthew Gonder

Описание: Картина рассказывает о женщине, которая задумала идеальную месть своему начальнику, после того как подвергается публичному унижению с его стороны.



Видео: 1280 x 688 (1.860), 24.000 fps, AVC, High@L4.1, х264, ~ 2 146 Kbps Kbps, 0.0.102 bit/pixel
Аудио:#1:русский 48 kHz, AC3 Dolby Digital, 3/2 (L,C,R,l,r) + LFE ch, ~448 kbps [Любительский (одноголосый)]
Аудио:#2:французский 48 kHz, A_AC3,L R 2ch, ~128 kbps [Оригинал]
General
Unique ID: 253488397802652898825924793654515171363 (0xBEB416EF420BFAB497003E254E6D8023)
Complete name: E:\РЕЛИЗЫ\Все релизы 16\prestypnaja_lubov_[tfile.ru].mkv
Format: Matroska
File size: 2.06 GiB
Duration: 1h 46mn
Overall bit rate: 2 777 Kbps
Movie name: Преступная любовь / Crime d'amou / Love Crime (2010) BDRip 720p
Encoded date: UTC 2011-05-20 06:26:24
Writing application: mkvmerge v2.3.0 ('Freak U') built on Sep8 2008 18:32:16
Writing library: libebml v0.7.7 + libmatroska v0.8.1

Video
ID: 1
Format: AVC
Format/Info: Advanced Video Codec
Format profile: High@L4.1
Format settings, CABAC: Yes
Format settings, ReFrames: 15 frames
Codec ID: V_MPEG4/ISO/AVC
Duration: 1h 46mn
Bit rate: 2 146 Kbps
Width: 1 280 pixels
Height: 688 pixels
Display aspect ratio: 1.860
Frame rate: 24.000 fps
Color space: YUV
Chroma subsampling: 4:2:0
Bit depth: 8 bits
Scan type: Progressive
Bits/(Pixel*Frame): 0.102
Stream size: 1.59 GiB (77%)
Language: French

Audio #1
ID: 2
Format: AC-3
Format/Info: Audio Coding 3
Mode extension: CM (complete main)
Codec ID: A_AC3
Duration: 1h 46mn
Bit rate mode: Constant
Bit rate: 448 Kbps
Channel(s): 6 channels
Channel positions: Front: L C R, Side: L R, LFE
Sampling rate: 48.0 KHz
Bit depth: 16 bits
Compression mode: Lossy
Delay relative to video: 15ms
Stream size: 340 MiB (16%)
Language: Russian

Audio #2
ID: 3
Format: AC-3
Format/Info: Audio Coding 3
Mode extension: CM (complete main)
Codec ID: A_AC3
Duration: 1h 46mn
Bit rate mode: Constant
Bit rate: 128 Kbps
Channel(s): 2 channels
Channel positions: Front: L R
Sampling rate: 48.0 KHz
Bit depth: 16 bits
Compression mode: Lossy
Delay relative to video: 15ms
Stream size: 97.1 MiB (5%)
Language: French

Text #1
ID: 4
Format: UTF-8
Codec ID: S_TEXT/UTF8
Codec ID/Info: UTF-8 Plain Text
Language: English

Text #2
ID: 5
Format: UTF-8
Codec ID: S_TEXT/UTF8
Codec ID/Info: UTF-8 Plain Text
Language: Russian

Text #3
ID: 6
Format: UTF-8
Codec ID: S_TEXT/UTF8
Codec ID/Info: UTF-8 Plain Text
Language: English

Text #4
ID: 7
Format: UTF-8
Codec ID: S_TEXT/UTF8
Codec ID/Info: UTF-8 Plain Text
Language: French


















реклама партнёра


Вернуться к началу
 Профиль Отправить личное сообщение  
 
   Похожие торренты   Автор   Торрент   Размер 
В этой теме нет новых непрочитанных сообщений. Любовь – это идеальное преступление / L'amour est un crime parfait [триллер, драма, 2013] HDRip, Mvo [Студия Позитив]

Dracon

2 | 2

1.46 ГБ

В этой теме нет новых непрочитанных сообщений. Любовь – это идеальное преступление / L'amour est un crime parfait [триллер, драма, 2013] BDRip 720p, Mvo [Студия Позитив]

Dracon

56 | 8

4.52 ГБ

В этой теме нет новых непрочитанных сообщений. Преступная деятельность / Criminal Activities [Триллер, драма, криминал, 2015] HDRip [IDEAFILM]

Dracon

443 | 29

1.36 ГБ

В этой теме нет новых непрочитанных сообщений. Любовь на троих / L'amour aux trousses (Филипп де Шоврон / Philippe de Chauveron) [2005 г., Франция, комедия, мелодрама, криминал, DVDRip] DVO

Alfredovich

4 | 3

1.36 ГБ

В этой теме нет новых непрочитанных сообщений. Настоящее преступление / True Crime [триллер, драма, криминал, детектив, 1999] BDRip 1080p, Mvo+Sub

salma3

44 | 36

20.53 ГБ

В этой теме нет новых непрочитанных сообщений. Первая любовь / Un amour de jeunesse (Миа Хансен-Лёве / Mia Hansen-Løve) [2011г., Франция, драма, мелодрама, авторское кино, HDRip] Sub

Alfredovich

33 | 2

1.37 ГБ

В этой теме нет новых непрочитанных сообщений. Мыслить как преступник / Criminal Minds [S01-10] [триллер, криминал, драма, детектив, 2005-2015] WEB-DLRip, Mvo [ДТВ / Fox Crime]

salma3

32 | 145

107.43 ГБ


Начать новую тему Ответить на тему  [ 1 сообщение ] 




Для Мосгорсуда, Роскомнадзора и рекламодателей:: mosgorsud-torrent[собачка]yandex.ru