Торрент файл
скачать торрент магнет ссылка Добавлен: 25 май 2011, 08:12
Размер: 1.37 ГБ
Сидеров: 35
Личеров: 6
Автор

СообщениеДобавлено: 25 май 2011, 08:12 

Не в сети
Супермодератор
Аватара пользователя
Дата регистрации:
22 май 2010, 11:03
Возраст: 31
Спасибо: 7509 / 13
Сообщения: 49940
Врата / The Hole

Перевод: Профессиональный (полное дублирование)
Субтитры: отсутствуют
Формат: DVDRip-AVC, MKV, H.264, AC3
Страна: США

Слоган «Они знают, чего ты боишься»

Режиссер: Джо Данте / Joe Dante
Жанр: ужасы, триллер, комедия
Продолжительность: 01:28:15
Год выпуска: 2009

В ролях: Крис Дж. Келли, Тери Поло, Брюс Дерн, Хейли Беннетт, Натан Гэмбл, Дик Миллер, Куинн Лорд, Джон ДеСантис, Джессика Жюст, Чорд Оуверстрит

Описание: Куда уж хуже! — именно так думает 17-ти летний Дени и его 10-ти летний брат Лукас, когда мать перевозит их из Нью-Йорка в сонный городишко Бенсонвиль. Не спеши расстраиваться Дени: твоя новая соседка Джули очень даже ничего. Мама всё больше пропадает на работе, ей некогда заниматься детьми, и братья находят себе занятие: исследовать своё новое место жительства. Дени всё больше интересуется Джулией, и всё меньше своим младшим братом.
Но всё изменится, когда они найдут зловещую бездонную дыру, закрытую люком в подвале. И открыв крышку люка, братьев пронизывает леденящий сердце холод — этот бездонный колодец является вратами в миры тьмы. И теперь, когда они выпустили зло на волю, в каждой тени оживут их потаённые страхи, и им придётся встретится лицом к лицу с ужасом, чтобы закрыть врата навсегда.


Рейтинг Кинопоиск.RU: 5.886
Рейтинг IMDB: 7.0/10
Рейтинг MPAA:PG-13

Дополнительная информация:
сборы в России $1 553 094

Видео: MPEG4 Video (H264) 720x576 @ 1024х576 (16:9) 25.00fps 1 779 Kbps 0.172 bit/pixel
Аудио: Dolby AC3 48000Hz 6ch 448 Kbps


Format : Matroska
File size : 1.37 GiB
Duration : 1h 28mn
Overall bit rate : 2 228 Kbps
Encoded date : UTC 2010-07-31 10:11:43
Writing application : mkvmerge v4.1.1 ('Bouncin' Back') сборка от Jul 3 2010 22:54:08
Writing library : libebml v1.0.0 + libmatroska v1.0.0

Video
ID : 1
Format : AVC
Format/Info : Advanced Video Codec
Format profile : High@L3.1
Format settings, CABAC : Yes
Format settings, ReFrames : 10 frames
Muxing mode : Container profile=Unknown@3.1
Codec ID : V_MPEG4/ISO/AVC
Duration : 1h 28mn
Bit rate : 1 779 Kbps
Width : 720 pixels
Height : 576 pixels
Display aspect ratio : 16:9
Frame rate : 25.000 fps
Standard : PAL
Color space : YUV
Chroma subsampling : 4:2:0
Bit depth : 8 bits
Scan type : Progressive
Bits/(Pixel*Frame) : 0.172
Stream size : 1.07 GiB (78%)
Writing library : x264 core 104 r1677 19df41a
Encoding settings : cabac=1 / ref=10 / deblock=1:-1:-1 / analyse=0x3:0x133 / me=tesa / subme=10 / psy=1 / psy_rd=0.00:0.00 / mixed_ref=1 / me_range=32 / chroma_me=1 / trellis=2 / 8x8dct=1 / cqm=0 / deadzone=21,11 / fast_pskip=0 / chroma_qp_offset=0 / threads=6 / sliced_threads=0 / nr=0 / decimate=1 / interlaced=0 / constrained_intra=0 / bframes=10 / b_pyramid=2 / b_adapt=2 / b_bias=0 / direct=3 / weightb=1 / open_gop=0 / weightp=2 / keyint=250 / keyint_min=25 / scenecut=40 / intra_refresh=0 / rc_lookahead=60 / rc=2pass / mbtree=1 / bitrate=1779 / ratetol=1.0 / qcomp=0.80 / qpmin=10 / qpmax=51 / qpstep=4 / cplxblur=20.0 / qblur=0.5 / ip_ratio=1.40 / aq=1:1.00
Language : Russian

Audio
ID : 2
Format : AC-3
Format/Info : Audio Coding 3
Mode extension : CM (complete main)
Codec ID : A_AC3
Duration : 1h 28mn
Bit rate mode : Constant
Bit rate : 448 Kbps
Channel(s) : 6 channels
Channel positions : Front: L C R, Side: L R, LFE
Sampling rate : 48.0 KHz
Stream size : 283 MiB (20%)
Language : Russian






















реклама партнёра


Вернуться к началу
 Профиль Отправить личное сообщение  
 
   Похожие торренты   Автор   Торрент   Размер 
В этой теме нет новых непрочитанных сообщений. Пик Данте / Dante's Peak [боевик, триллер, приключения, 1997] HDRip, Dvo

salma3

11 | 1

1.46 ГБ

В этой теме нет новых непрочитанных сообщений. Пик Данте / Dante's Peak [боевик, триллер, приключения, 1997] BDRip 720p, Mvo+2Dvo+Avo+Sub

salma3

1 | 2

7.95 ГБ

В этой теме нет новых непрочитанных сообщений. Пик Данте / Dante's Peak [боевик, триллер, приключения, 1997] BDRip 1080p, Mvo+2Dvo+Avo+Sub

salma3

15 | 5

12.34 ГБ

В этой теме нет новых непрочитанных сообщений. Моя девушка – зомби / Burying the Ex (Джо Данте) [ужасы, комедия, 2014] DVDRip [СoldFilm]

Dracon

3 | 0

1.46 ГБ

В этой теме нет новых непрочитанных сообщений. Врата ада / The Doorway [ужасы, триллер, 2000] DVDRip, Avo

salma3

47 | 9

1.46 ГБ

В этой теме нет новых непрочитанных сообщений. The Barque Of Dante - Final Victory [2009, Symphonic Power Metal, MP3]

PriZraK

0 | 1

94.72 МБ

В этой теме нет новых непрочитанных сообщений. Седьмые врата ада / ...E tu vivrai nel terrore! L'aldilà [ужасы, 1981] BDRip 720p, Mvo+Avo+Sub

salma3

92 | 4

3.91 ГБ


Начать новую тему Ответить на тему  [ 1 сообщение ] 




Для Мосгорсуда, Роскомнадзора и рекламодателей:: mosgorsud-torrent[собачка]yandex.ru