Торрент файл
скачать торрент магнет ссылка Добавлен: 25 май 2011, 07:58
Размер: 1.45 ГБ
Сидеров: 6
Личеров: 3
Автор

СообщениеДобавлено: 25 май 2011, 07:58 

Не в сети
Супермодератор
Аватара пользователя
Дата регистрации:
22 май 2010, 11:03
Возраст: 31
Спасибо: 7509 / 13
Сообщения: 49940
[b]Зеркала 2 / Mirrors 2[/b]


Перевод: Любительский (одноголосый)
cубтитры: Русские
Формат: DVDRip-AVC, MKV, H.264, AC3
Страна: США

Режиссер: Виктор Гарсия
Жанр: Ужасы, триллер, детектив.
Продолжительность: 01:26:29
Год выпуска: 2010

В ролях: Ник Стал, Уильям Кэтт, Эммануэль Вожье, Лоуренс Тернер, Стефани Онор, Кристи Карлсон Романо, Джон Дэвис, Моника Акоста, Грант Кейс, Томас Дэниел.

Описание: Макс, выздоравливающий после травмирующего несчастного случая, устраивается на работу ночным охранником. Он начинает видеть глазами молодой таинственной женщины, отражающейся в зеркале магазина.

Рейтинг на КиноПоиск.RU: 4.827
Рейтинг на IMDB: 4.7/10
Рейтинг MPAA: R

Видео: 720x576@1024x576, (16:9), 25 fps, MPEG4 AVC (x264) High@L3.1, 1 639 kbps, 0.154 bit/pixel

Аудио#1: Русский: 48 kHz, AC3, 6 ch, 384.00 kbps [Любительский (одноголосый) Kerob]
Аудио#2: Английский:48 kHz, AC3, 6 ch, 384.00 kbps [оригинал]

[b]
MediaInfo"]
Complete name: \Mirrors_2_2010_DVDRip-AVC.mkv
Format: Matroska
File size: 1.45 GiB
Duration: 1h 26mn
Overall bit rate: 2 408 Kbps
Movie name: Mirrors-2.chopper887
Encoded date: UTC 2010-10-07 17:26:13
Writing application: mkvmerge v3.0.0 ('Hang up your Hang-Ups') built on Dec 12 2009 15:20:35
Writing library: libebml v0.7.9 + libmatroska v0.8.1

Video
ID: 1
Format: AVC
Format/Info: Advanced Video Codec
Format profile: High@L3.1
Format settings, CABAC: Yes
Format settings, ReFrames: 6 frames
Muxing mode: Container profile=Unknown@3.1
Codec ID: V_MPEG4/ISO/AVC
Duration: 1h 26mn
Bit rate: 1 592 Kbps
Nominal bit rate: 1 639 Kbps
Width: 720 pixels
Height: 576 pixels
Display aspect ratio: 16:9
Original display aspect ratio: 5:4
Frame rate: 25.000 fps
Standard: PAL
Resolution: 8 bits
Colorimetry: 4:2:0
Scan type: Progressive
Bits/(Pixel*Frame): 0.154
Stream size: 985 MiB (66%)
Title: Mirrors-2.chopper887
Writing library: x264 core 104 r1713 c276662
Encoding settings: cabac=1 / ref=6 / deblock=1:-2:-1 / analyse=0x3:0x133 / me=umh / subme=9 / psy=1 / psy_rd=1.00:0.10 / mixed_ref=1 / me_range=32 / chroma_me=1 / trellis=2 / 8x8dct=1 / cqm=0 / deadzone=21,11 / fast_pskip=0 / chroma_qp_offset=-3 / threads=3 / sliced_threads=0 / nr=0 / decimate=1 / interlaced=0 / constrained_intra=0 / bframes=7 / b_pyramid=2 / b_adapt=2 / b_bias=0 / direct=3 / weightb=1 / open_gop=0 / weightp=2 / keyint=250 / keyint_min=25 / scenecut=40 / intra_refresh=0 / rc_lookahead=30 / rc=2pass / mbtree=1 / bitrate=1639 / ratetol=1.0 / qcomp=0.60 / qpmin=10 / qpmax=51 / qpstep=4 / cplxblur=20.0 / qblur=0.5 / ip_ratio=1.40 / aq=1:1.00
Language: English

Audio #1
ID: 2
Format: AC-3
Format/Info: Audio Coding 3
Codec ID: A_AC3
Duration: 1h 26mn
Bit rate mode: Constant
Bit rate: 384 Kbps
Channel(s): 6 channels
Channel positions: Front: L C R, Surround: L R, LFE
Sampling rate: 48.0 KHz
Stream size: 238 MiB (16%)
Title: Любительский Кerob

Audio #2
ID: 3
Format: AC-3
Format/Info: Audio Coding 3
Codec ID: A_AC3
Duration: 1h 26mn
Bit rate mode: Constant
Bit rate: 384 Kbps
Channel(s): 6 channels
Channel positions: Front: L C R, Surround: L R, LFE
Sampling rate: 48.0 KHz
Stream size: 238 MiB (16%)
Title: Английский

Text
ID: 4
Format: UTF-8
Codec ID: S_TEXT/UTF8
Codec ID/Info: UTF-8 Plain Text
Title: Русские
[b]
Показать скриншоты"]












реклама партнёра


Вернуться к началу
 Профиль Отправить личное сообщение  
 
   Похожие торренты   Автор   Торрент   Размер 
В этой теме нет новых непрочитанных сообщений. Галлоуз Хилл / Gallows Hill / The Damned (Виктор Гарсия) [ужасы, триллер, детектив, 2013] BDRip 1080p, dub [Чистый звук]

Dracon

40 | 4

5.82 ГБ

В этой теме нет новых непрочитанных сообщений. По ту сторону зеркала / The Other Side of the Mirror [драма, триллер, фентези, 2016] HDRip, Mvo

salma3

57 | 7

1.46 ГБ

В этой теме нет новых непрочитанных сообщений. Некрофобия / Necrofobia [ужасы, триллер, детектив, 2014] DVDRip, Avo

salma3

579 | 26

1.37 ГБ

В этой теме нет новых непрочитанных сообщений. Владение 18 [ужасы, детектив, триллер, 2013] DVDRip [лицензия]

Dracon

337 | 7

1.37 ГБ

В этой теме нет новых непрочитанных сообщений. Некрофобия / Necrofobia [Ужасы, триллер, детектив, 2014] DVDRip, avo

Dracon

5 | 5

739.87 МБ

В этой теме нет новых непрочитанных сообщений. Жилец / The Lodger [ужасы, триллер, криминал, детектив, 1944] DVDRip-AVC, Avo

salma3

17 | 3

1.47 ГБ

В этой теме нет новых непрочитанных сообщений. Страж / The Guardian [ужасы, триллер, драма, детектив, 1990] DVDRip, Avo

salma3

16 | 3

1.46 ГБ


Начать новую тему Ответить на тему  [ 1 сообщение ] 




Для Мосгорсуда, Роскомнадзора и рекламодателей:: mosgorsud-torrent[собачка]yandex.ru