Торрент файл
скачать торрент магнет ссылка Добавлен: 25 май 2011, 07:54
Размер: 745.89 МБ
Сидеров: 11
Личеров: 5
Автор

СообщениеДобавлено: 25 май 2011, 07:54 

Не в сети
Супермодератор
Аватара пользователя
Дата регистрации:
22 май 2010, 11:03
Возраст: 31
Спасибо: 7524 / 13
Сообщения: 49940
Высота / Altitude



Перевод: Любительский (одноголосый), cубтитры: отсутствуют
Формат: LowHDRip-AVC, MKV, H.264, AC3
Страна: США, Канада

Режиссер: Кааре Эндрюс
Жанр: ужасы, фантастика, триллер
Продолжительность: 01:28:13
Год выпуска: 2010

В ролях: Джессика Лаундес, Джулианна Гуилл, Райан Доноху, Лэндон Либуарон, Майк Допуд, Райан Грэнтхем, Чела Хорсдэл, Йен Робисан, Мишель Харрисон

Описание: Действие разворачивается на борту небольшого самолета с четырьмя приятелями-подростками на борту и неопытной девушкой за штурвалом. Из-за механической неисправности джет взмывает на невообразимую высоту, а затем начинает падение сквозь бесконечный туман. Когда ребята восстанавливают управление, оказывается, что по всем расчетам они уже должны были врезаться в землю, но вместо этого продолжают падать в неизвестность. И нечто зловещее, скрывающееся в туманных клубах, жаждет их смерти.

Рейтинг на Кинопоиск.RU:5.070
Рейтинг на IMDB:5.1/10
Рейтинг MPAA:R

Видео: 688 x 288 (2.389), 23.976 fps, MPEG4 AVC (x264) ~967 kbps avg, 0.203 bit/pixel
Аудио: 48 kHz, AC-3 L R, 2ch, ~192.00 kbps avg



[b]
MediaInfo"]
General
Complete name: G:\Мои релизы\Все релизы 2\Altitude_[tfile.ru].mkv
Format: Matroska
File size: 746 MiB
Duration: 1h 28mn
Overall bit rate: 1 182 Kbps
Encoded date: UTC 2010-10-23 01:56:48
Writing application: mkvmerge v2.1.0 ('Another Place To Fall') built on Aug 19 2007 13:40:07
Writing library: libebml v0.7.7 + libmatroska v0.8.1

Video
ID: 1
Format: AVC
Format/Info: Advanced Video Codec
Format profile: High@L4.1
Format settings, CABAC: Yes
Format settings, ReFrames: 4 frames
Muxing mode: Container profile=Unknown@4.1
Codec ID: V_MPEG4/ISO/AVC
Duration: 1h 28mn
Bit rate: 967 Kbps
Nominal bit rate: 976 Kbps
Width: 688 pixels
Height: 288 pixels
Display aspect ratio: 2.35
Frame rate: 23.976 fps
Resolution: 24 bits
Colorimetry: 4:2:0
Scan type: Progressive
Bits/(Pixel*Frame): 0.203
Stream size: 609 MiB (82%)
Writing library: x264 core 68 r1185bm 2956905
Encoding settings: cabac=1 / ref=4 / deblock=1:1:1 / analyse=0x3:0x112 / me=umh / subme=8 / psy_rd=0.0:0.0 / mixed_ref=1 / me_range=16 / chroma_me=1 / trellis=2 / 8x8dct=1 / cqm=0 / deadzone=21,11 / chroma_qp_offset=0 / threads=8 / thread_queue=8 / nr=1 / decimate=1 / mbaff=0 / bframes=3 / b_pyramid=0 / b_adapt=2 / b_bias=0 / direct=3 / wpredb=1 / keyint=250 / keyint_min=25 / scenecut=40 / rc=2pass / bitrate=976 / ratetol=1.0 / qcomp=0.60 / qpmin=10 / qpmax=51 / qpstep=4 / cplxblur=20.0 / qblur=0.5 / ip_ratio=1.40 / pb_ratio=1.30 / aq=2:1.00

Audio
ID: 2
Format: AC-3
Format/Info: Audio Coding 3
Codec ID: A_AC3
Duration: 1h 28mn
Bit rate mode: Constant
Bit rate: 192 Kbps
Channel(s): 2 channels
Channel positions: L R
Sampling rate: 48.0 KHz
Stream size: 121 MiB (16%)
Title: vo
Language: Russian
[b]
Показать скриншоты"]










реклама партнёра


Вернуться к началу
 Профиль Отправить личное сообщение  
 
   Похожие торренты   Автор   Торрент   Размер 
В этой теме нет новых непрочитанных сообщений. Высота / Altitude [ужасы, фантастика, триллер, 2010] HDRip, Mvo [HTB+]

salma3

25 | 2

1.46 ГБ

В этой теме нет новых непрочитанных сообщений. Высота / Altitude [ужасы, фантастика, триллер, детектив, 2010] BDRip 720p, Dvo

salma3

91 | 18

5.66 ГБ

В этой теме нет новых непрочитанных сообщений. Джейсон X / Jason X [ужасы, фантастика, триллер, 2001] WEB-DL 720p, Mvo

salma3

0 | 0

2.87 ГБ

В этой теме нет новых непрочитанных сообщений. Жуки / Bugs [ужасы, фантастика, триллер, 2003] DVDRip, Mvo

salma3

3 | 4

1.46 ГБ

В этой теме нет новых непрочитанных сообщений. Не навреди / Malignant [ужасы, фантастика, триллер, 2013] WEB-DL 720p, mvo

Dracon

20 | 2

2.09 ГБ

В этой теме нет новых непрочитанных сообщений. Ангар 10 / Hangar 10 [ужасы, фантастика, триллер, 2014] WEB-DLRip, Avo

salma3

332 | 19

1.49 ГБ

В этой теме нет новых непрочитанных сообщений. Не навреди / Malignant [ужасы, фантастика, триллер, 2013] WEB-DLRip, Mvo

salma3

54 | 2

1.37 ГБ


Начать новую тему Ответить на тему  [ 1 сообщение ] 




Для Мосгорсуда, Роскомнадзора и рекламодателей:: mosgorsud-torrent[собачка]yandex.ru