Торрент файл
скачать торрент магнет ссылка Добавлен: 25 май 2011, 07:25
Размер: 2.05 ГБ
Сидеров: 233
Личеров: 23
Автор

СообщениеДобавлено: 25 май 2011, 07:25 

Не в сети
Супермодератор
Аватара пользователя
Дата регистрации:
22 май 2010, 11:03
Возраст: 31
Спасибо: 7508 / 13
Сообщения: 49940
Грибы / Shrooms

Перевод: Профессиональный (многоголосый, закадровый), cубтитры: отсутствуют
Формат: HDRip, AVI, XviD, AC3
Страна: Ирландия, Великобритания, Дания
Режиссер: Пэдди Бретнэк / Paddy Breathnach
Жанр: Ужасы, триллер
Продолжительность: 01:27:35
Год выпуска: 2007
В ролях: Линдси Хоун, Джек Хьюстон, Макс Кэш

Описание: Группа приятелей едет в Ирландию к своему другу Джейку, который обещал сходить с ними в поход за галлюциногенными грибами в лес. В ходе сбора грибов и дальнейшего их употребления одна из девушек Тара съедает странный гриб, съедение которого может привести к смерти, а если человек выживет, то он, по одной из друидских легенд, дарует съевшему его возможность предвидения. Таре удаётся выжить, и её действительно начинают посещать странные видения, в которых она видит смерть своих друзей. Кроме того, Тара видит убийц — монаха, который также съел этот гриб, и мальчика с мешком на голове, а также одичавшего среди собак ещё одного мальчика — и не может понять, реальны ли они или воплощение её фантазии.





Видео:720x304, (2.35:1), MPEG4 XviD, ~2 431 kbps avg,0.463 bit/pixel
Аудио: #1 Русский, 48.0 KHz, AC3 Dolby Digital, 6ch (L,C,R,l,r) + LFE ch, 448 кбит/с [Профессиональный многоголосый]
Аудио: #2 Английский 48.0 KHz, AC3 Dolby Digital, 6ch (L,C,R,l,r) + LFE ch, 448 кбит/с [Оригинал]

Рeлиз группы :

D:\proekt\Griby_2007.avi
General
Complete name : D:\proekt\Griby_2007.avi
Format : AVI
Format/Info : Audio Video Interleave
Format profile : OpenDML
File size : 2.05 GiB
Duration : 1h 27mn
Overall bit rate : 3 346 Kbps
Writing application : VirtualDubMod 1.5.10.2 (build 2540/release)
Writing library : VirtualDubMod build 2540/release
Video #0
ID : 0
Format : MPEG-4 Visual
Format profile : AdvancedSimple@L5
Format settings, BVOP : Yes
Format settings, QPel : No
Format settings, GMC : No warppoints
Format settings, Matrix : Default (MPEG)
Codec ID : XVID
Codec ID/Hint : XviD
Duration : 1h 27mn
Bit rate : 2 431 Kbps
Width : 720 pixels
Height : 304 pixels
Display aspect ratio : 2.35:1
Frame rate : 24.000 fps
Resolution : 24 bits
Colorimetry : 4:2:0
Scan type : Progressive
Bits/(Pixel*Frame) : 0.463
Stream size : 1.49 GiB (73%)
Writing library : XviD 1.2.1 (UTC 2008-12-04)
Audio #1
ID : 1
Format : AC-3
Format/Info : Audio Coding 3
Codec ID : 2000
Duration : 1h 27mn
Bit rate mode : Constant
Bit rate : 448 Kbps
Channel(s) : 6 channels
Channel positions : Front: L C R, Surround: L R, LFE
Sampling rate : 48.0 KHz
Stream size : 281 MiB (13%)
Alignment : Split accross interleaves
Interleave, duration : 42 ms (1.00 video frame)
Interleave, preload duration : 500 ms
Audio #2
ID : 2
Format : AC-3
Format/Info : Audio Coding 3
Codec ID : 2000
Duration : 1h 27mn
Bit rate mode : Constant
Bit rate : 448 Kbps
Channel(s) : 6 channels
Channel positions : Front: L C R, Surround: L R, LFE
Sampling rate : 48.0 KHz
Stream size : 281 MiB (13%)
Alignment : Split accross interleaves
Interleave, duration : 42 ms (1.00 video frame)










реклама партнёра


Вернуться к началу
 Профиль Отправить личное сообщение  
 
   Похожие торренты   Автор   Торрент   Размер 
В этой теме нет новых непрочитанных сообщений. Крокодил / Rogue [Ужасы, триллер, приключения, 2007] HDRip, Dvo

salma3

252 | 14

1.46 ГБ

В этой теме нет новых непрочитанных сообщений. За гранью страха / Borderland [ужасы, триллер, криминал, 2007] HDRip-AVC, Mvo,Sub

salma3

83 | 20

1.45 ГБ

В этой теме нет новых непрочитанных сообщений. Анаморф / Anamorph [ужасы, триллер, криминал, драма, 2007] HDRip, Mvo [Лицензия]

salma3

9 | 3

1.46 ГБ

В этой теме нет новых непрочитанных сообщений. Неразлучные / Alone [Ужасы, триллер, драма, 2007] DVDRip, Mvo

salma3

61 | 4

1.46 ГБ

В этой теме нет новых непрочитанных сообщений. Катакомбы / Catacombs [Ужасы, Триллер, 2007] DVDRip, Dub

salma3

33 | 2

1.46 ГБ

В этой теме нет новых непрочитанных сообщений. Тень внутри / The Shadow Within [ужасы, триллер, 2007] DVDRip, Avo

salma3

94 | 52

1.46 ГБ

В этой теме нет новых непрочитанных сообщений. Франкенштейн / Frankenstein [Ужасы, триллер, драма, 2007] DVDRip, Mvo

salma3

133 | 10

1.37 ГБ


Начать новую тему Ответить на тему  [ 1 сообщение ] 




Для Мосгорсуда, Роскомнадзора и рекламодателей:: mosgorsud-torrent[собачка]yandex.ru