Торрент файл
скачать торрент магнет ссылка Добавлен: 25 май 2011, 07:22
Размер: 2.19 ГБ
Сидеров: 21
Личеров: 7
Автор

СообщениеДобавлено: 25 май 2011, 07:22 

Не в сети
Супермодератор
Аватара пользователя
Дата регистрации:
22 май 2010, 11:03
Возраст: 31
Спасибо: 7524 / 13
Сообщения: 49940
Забери мою душу / My Soul to Take



Перевод: Профессиональный (полное дублирование)
Cубтитры: Oтсутствуют
Слоган: «Что, если его душа в одном из нас?»
Формат: HDRip, MKV, H.264, AC3
Страна: США
Режиссер: Уэс Крэйвен
Жанр: Триллер, Ужасы
Продолжительность: 01:47:00
Год выпуска: 2010

В ролях: Фрэнк Грилло, Эмили Миде, Зена Грэй, Джессика Хехт, Джон Магаро, Ник Лашэвэй, Макс Тириот, Деннис Бутсикарис, Дэнзел Уитакер

Описание: Сонный городишко Ривердейл ожидает исполнения пророчества: серийный убийца должен вернуться на место своих преступлений, чтобы убить семерых детей, родившихся в день его смерти. Но действительно ли маньяк мертв? Или зло переселилось в тело неосторожного подростка, которому теперь предстоит завершить страшную миссию?



[/field]



Видео: 1280x544 (2.35:1), MPEG-4 AVC (х264) ~23.976 kbps avg,0.149 bit/pixel
Аудио: 48.0 КГц,AC-3 CBR, 3/2 (L,C,R,l,r) + LFE ch, ~448 kbps avg

Доп. информация: Рип с лицензионного Blu-Ray + лицензионная дорожка

D:\Films\My_Soul_to_Take.mkv
General
Complete name : D:\Films\My_Soul_to_Take.mkv
Format : Matroska
File size : 2.19 GiB
Duration : 1h 47mn
Overall bit rate : 2 918 Kbps
Movie name : Rip by Romeo [NOLIMITS-TEAM.RU]
Encoded date : UTC 2011-01-28 11:03:40
Writing application : mkvmerge v3.0.0 ('Hang up your Hang-Ups') built on Dec 12 2009 15:20:35
Writing library : libebml v0.7.9 + libmatroska v0.8.1
Video #1
ID : 1
Format : AVC
Format/Info : Advanced Video Codec
Format profile : High@L4.1
Format settings, CABAC : Yes
Format settings, ReFrames : 3 frames
Muxing mode : Container profile=Unknown@4.1
Codec ID : V_MPEG4/ISO/AVC
Duration : 1h 47mn
Bit rate : 2 412 Kbps
Nominal bit rate : 2 481 Kbps
Width : 1 280 pixels
Height : 544 pixels
Display aspect ratio : 2.35:1
Original display aspect ratio : 2.35:1
Frame rate : 23.976 fps
Resolution : 24 bits
Colorimetry : 4:2:0
Scan type : Progressive
Bits/(Pixel*Frame) : 0.144
Stream size : 1.81 GiB (83%)
Title : Забери мою душу.[nolimits-team.ru]
Writing library : x264 core 112 r1867 22bfd31
Encoding settings : cabac=1 / ref=1 / deblock=1:0:0 / analyse=0x3:0x3 / me=dia / subme=1 / psy=1 / psy_rd=0.00:0.00 / mixed_ref=0 / me_range=16 / chroma_me=1 / trellis=0 / 8x8dct=1 / cqm=0 / deadzone=21,11 / fast_pskip=1 / chroma_qp_offset=0 / threads=6 / sliced_threads=0 / slices=4 / nr=0 / decimate=1 / interlaced=0 / constrained_intra=0 / bframes=3 / b_pyramid=1 / b_adapt=1 / b_bias=0 / direct=1 / weightb=1 / open_gop=0 / weightp=1 / keyint=24 / keyint_min=1 / scenecut=40 / intra_refresh=0 / rc_lookahead=0 / rc=abr / mbtree=0 / bitrate=2481 / ratetol=1.0 / qcomp=0.60 / qpmin=0 / qpmax=51 / qpstep=4 / vbv_maxrate=17500 / vbv_bufsize=14500 / nal_hrd=vbr / ip_ratio=1.10 / pb_ratio=1.10 / aq=1:1.00
Language : English
Audio #2
ID : 2
Format : AC-3
Format/Info : Audio Coding 3
Codec ID : A_AC3
Duration : 1h 47mn
Bit rate mode : Constant
Bit rate : 448 Kbps
Channel(s) : 6 channels
Channel positions : Front: L C R, Surround: L R, LFE
Sampling rate : 48.0 KHz
Stream size : 344 MiB (15%)
Title : Дублированный
Language : Russian











реклама партнёра


Вернуться к началу
 Профиль Отправить личное сообщение  
 
   Похожие торренты   Автор   Торрент   Размер 
В этой теме нет новых непрочитанных сообщений. Крик. Квадрология / Scream. Quadrilogy (Уэс Крэйвен) [1996, 1997, 1999, 2011, ужасы, триллер, детектив, BDRip]

Dracon

19 | 1

5.47 ГБ

В этой теме нет новых непрочитанных сообщений. Бессмертные души / Soul Survivors [ Ужасы, Триллер, 2001] DVDRip-AVC, Mvo

salma3

1 | 2

1.46 ГБ

В этой теме нет новых непрочитанных сообщений. Высота / Altitude [ужасы, фантастика, триллер, 2010] HDRip, Mvo [HTB+]

salma3

25 | 2

1.46 ГБ

В этой теме нет новых непрочитанных сообщений. Ночной драйв / Night Drive [ужасы, триллер, 2010] HDRip, Mvo

salma3

23 | 5

1.46 ГБ

В этой теме нет новых непрочитанных сообщений. День матери / Mother's Day [ужасы, триллер, драма, криминал, 2010] HDRip, Mvo

salma3

20 | 4

1.45 ГБ

В этой теме нет новых непрочитанных сообщений. Зарождение Мертвецов / Dead Genesis [ужасы, триллер, драма, 2010] HDRip, Avo

salma3

5 | 3

1.45 ГБ

В этой теме нет новых непрочитанных сообщений. Холодный пот / Cold Sweat / Sudor Frio [ужасы, триллер, 2010] HDRip, Avo

salma3

30 | 4

1.37 ГБ


Начать новую тему Ответить на тему  [ 1 сообщение ] 




Для Мосгорсуда, Роскомнадзора и рекламодателей:: mosgorsud-torrent[собачка]yandex.ru