Торрент файл
скачать торрент магнет ссылка Добавлен: 25 май 2011, 07:19
Размер: 2.21 ГБ
Сидеров: 89
Личеров: 10
Автор

СообщениеДобавлено: 25 май 2011, 07:19 

Не в сети
Супермодератор
Аватара пользователя
Дата регистрации:
22 май 2010, 11:03
Возраст: 31
Спасибо: 7509 / 13
Сообщения: 49940
Поворот не туда 3 / Wrong Turn 3: Left for Dead


Перевод: Профессиональный (многоголосый, закадровый)
Субтитры: Отсутствуют
Слоган: «Вы не увидите то, что вас убьет»
Формат: HDRip, MKV, H.264, AC3

Страна: США

Режиссер: Деклан О`Брайэн
Жанр: Ужасы, Триллер
Продолжительность: 01:32:02
Год выпуска: 2009

В ролях: Том Фредерик, Джанет Монтгомери, Тэмер Хассан, Джил Колирин, Том МакКэй, Джэйк Каррен, Чуки Венис, Майк Страуб, Эмма Клиффорд

Описание: Группа людей оказывается загнанной в ловушку, в лесах Западной Вирджинии, где они вынуждены бороться за свои жизни против группы порочных, и ужасно уродливых каннибалов.





Видео: 1280*718(16:9), MPEG4/ISO/AVC ,High@L4.1, х264, 23,976 кадр/сек, 3084 Кбит/сек, 0.140 Bits/(Pixel*Frame)
Аудио: 48,0 КГц, AC3 CBR, 6 канала(ов), FrontL,C,R,Side: L,R, LFE), 384 Кбит/сек

Релиз группы:

Доп. информация: Рип с Blu-Ray (720p)


D:\Films\Wrong Turn 3 [nolimits-team].mkv
General
Complete name : D:\Films\Wrong Turn 3 [nolimits-team].mkv
Format : Matroska
File size : 2.21 GiB
Duration : 1h 32mn
Overall bit rate : 3 434 Kbps
Movie name : Rip by Stalone [NOLIMITS-TEAM.RU]
Encoded date : UTC 2010-12-12 04:42:58
Writing application : mkvmerge v3.2.0 ('Beginnings') built on Feb 12 2010 16:46:17
Writing library : libebml v0.7.9 + libmatroska v0.8.1
Video #1
ID : 1
Format : AVC
Format/Info : Advanced Video Codec
Format profile : High@L4.1
Format settings, CABAC : Yes
Format settings, ReFrames : 3 frames
Muxing mode : Container profile=Unknown@4.1
Codec ID : V_MPEG4/ISO/AVC
Duration : 1h 31mn
Bit rate : 2 982 Kbps
Nominal bit rate : 3 084 Kbps
Width : 1 280 pixels
Height : 718 pixels
Display aspect ratio : 16:9
Original display aspect ratio : 16:9
Frame rate : 23.976 fps
Resolution : 24 bits
Colorimetry : 4:2:0
Scan type : Progressive
Bits/(Pixel*Frame) : 0.135
Stream size : 1.91 GiB (87%)
Title : Поворот не туда 3
Writing library : x264 core 108 r1788 c764e29
Encoding settings : cabac=1 / ref=1 / deblock=1:0:0 / analyse=0x3:0x3 / me=dia / subme=1 / psy=1 / psy_rd=0.00:0.00 / mixed_ref=0 / me_range=16 / chroma_me=1 / trellis=0 / 8x8dct=1 / cqm=0 / deadzone=21,11 / fast_pskip=1 / chroma_qp_offset=0 / threads=3 / sliced_threads=0 / slices=4 / nr=0 / decimate=1 / interlaced=0 / constrained_intra=0 / bframes=3 / b_pyramid=1 / b_adapt=1 / b_bias=0 / direct=1 / weightb=1 / open_gop=0 / weightp=0 / keyint=24 / keyint_min=1 / scenecut=40 / intra_refresh=0 / rc_lookahead=0 / rc=abr / mbtree=0 / bitrate=3084 / ratetol=1.0 / qcomp=0.60 / qpmin=0 / qpmax=51 / qpstep=4 / vbv_maxrate=17500 / vbv_bufsize=14500 / ip_ratio=1.10 / pb_ratio=1.10 / aq=1:1.00 / nal_hrd=vbr
Language : English
Audio #2
ID : 2
Format : AC-3
Format/Info : Audio Coding 3
Codec ID : A_AC3
Duration : 1h 32mn
Bit rate mode : Constant
Bit rate : 384 Kbps
Channel(s) : 6 channels
Channel positions : Front: L C R, Surround: L R, LFE
Sampling rate : 48.0 KHz
Stream size : 253 MiB (11%)
Title : Профессиональный (многоголосый закадровый)
Language : Russian













реклама партнёра


Вернуться к началу
 Профиль Отправить личное сообщение  
 
   Похожие торренты   Автор   Торрент   Размер 
В этой теме нет новых непрочитанных сообщений. Поворот не туда 6: Последний курорт / Wrong Turn 6: Last Resort [ужасы, 2014] HDRip, Mvo

Dracon

4874 | 151

1.37 ГБ

В этой теме нет новых непрочитанных сообщений. Поворот не туда 6: Последний курорт / Wrong Turn 6: Last Resort (Валерий Милев) [2014, ужасы, HDRip | Unrated | Лицензия] mvo

Nickolas3435

1633 | 62

1.46 ГБ

В этой теме нет новых непрочитанных сообщений. Поворот не туда 6: Последний курорт / Wrong Turn 6: Last Resort [ужасы, 2014] BDRemux, Mvo+Sub

salma3

24 | 7

23.4 ГБ

В этой теме нет новых непрочитанных сообщений. Поворот не туда 6: Последний курорт / Wrong Turn 6: Last Resort [UNRATED] [ужасы, 2014] BDRip 720p, Mvo

Dracon

4 | 2

4.5 ГБ

В этой теме нет новых непрочитанных сообщений. Поворот не туда 6: Последний курорт / Wrong Turn 6: Last Resort [UNRATED] [ужасы, 2014] BDRip 720p, Mvo+Sub

Dracon

150 | 5

8.03 ГБ

В этой теме нет новых непрочитанных сообщений. Ничего себе поездочка 3 / Joy Ride 3 (Деклан О’Брайэн) [Триллер, 2014] HDRip, Mvo

Dracon

12 | 3

1.46 ГБ

В этой теме нет новых непрочитанных сообщений. Поворот винта / The Turn of the Screw [триллер, 1992] DVDRip, Avo

salma3

47 | 8

1.46 ГБ


Начать новую тему Ответить на тему  [ 1 сообщение ] 




Для Мосгорсуда, Роскомнадзора и рекламодателей:: mosgorsud-torrent[собачка]yandex.ru