Торрент файл
скачать торрент магнет ссылка Добавлен: 25 май 2011, 07:04
Размер: 980.63 МБ
Сидеров: 3
Личеров: 3
Автор

СообщениеДобавлено: 25 май 2011, 07:04 

Не в сети
Супермодератор
Аватара пользователя
Дата регистрации:
22 май 2010, 11:03
Возраст: 31
Спасибо: 7508 / 13
Сообщения: 49940
Добыча / Prowl

Перевод: Любительский (одноголосый), cубтитры: английские
Формат: DVDRip-AVC, MKV, H.264, AC3
Страна: США
Режиссер: Патрик Сиверсен
Жанр: Ужасы.
Продолжительность: 01:24:15
Год выпуска: 2010

В ролях: Рута Гедминтас, Джошуа Боуман, Кортни Хоуп, Брюс Пэйн, Джэми Блэкли, Джордж Оливер, Атанас Сребрев, Велизaр Пеев.

Описание: Эмбер мечтает уехать из маленького городка, в котором живет и уговаривает друга отправиться с ней в большой город. По дороге их машина ломается, а встретившийся им водитель грузовика предлагает свою помощь. Все идет по плану, но страшно становится, когда водитель отказывается остановиться, а грузом, который он перевозит, оказываются коробки с человеческими останками. Страх перерастает в панику, когда их сгружают на темном складе, ставшем обителью для кровожадных существ, пищей для которых теперь стали незадачливые путешественники…





Видео: 720 x 304(2.35:1),23.976 fps,MPEG-4 AVC/H.264(High@L3.0),~1624 kbps avg, 8 bit/pixel
Аудио#1: Русский:48,0 КГц, AC-3 at , 2 ch,~ 192 kbps avg [Любительский (одноголосый) (R1shpil)]
Аудио#2: Русский:48,0 КГц, MPEG Audio at, 2 ch ,~ 112 kbps avg [Любительский (одноголосый) (zamez)]
Аудио#3: Английский:48,0 КГц, AAC at ,6 2 ch ,~384 kbps avg [Оригинал]

General
Unique ID : 249074925463097246221234451770647050119 (0xBB6215F2B2E47D8DA270E8EEF274F787)
Complete name : E:\торрент\Dobycha.2010.L1.2xRus.Eng.DVDRip.x264.[NNM-Club.ru].mkv
Format : Matroska
File size : 981 MiB
Duration : 1h 24mn
Overall bit rate : 1 624 Kbps
Movie name : Добыча / Prowl (2010) DVDRip-AVC
Encoded date : UTC 2011-04-02 18:26:20
Writing application : mkvmerge v2.3.0 ('Freak U') built on Sep 8 2008 18:32:16
Writing library : libebml v0.7.7 + libmatroska v0.8.1

Video
ID : 1
Format : AVC
Format/Info : Advanced Video Codec
Format profile : High@L3.0
Format settings, CABAC : Yes
Format settings, ReFrames : 4 frames
Codec ID : V_MPEG4/ISO/AVC
Duration : 1h 24mn
Width : 720 pixels
Height : 304 pixels
Display aspect ratio : 2.35:1
Frame rate mode : Variable
Frame rate : 23.976 fps
Color space : YUV
Chroma subsampling : 4:2:0
Bit depth : 8 bits
Scan type : Progressive
Title :
Language : English

Audio #1
ID : 2
Format : AC-3
Format/Info : Audio Coding 3
Mode extension : CM (complete main)
Codec ID : A_AC3
Duration : 1h 24mn
Bit rate mode : Constant
Bit rate : 192 Kbps
Channel(s) : 2 channels
Channel positions : Front: L R
Sampling rate : 48.0 KHz
Bit depth : 16 bits
Compression mode : Lossy
Delay relative to video : 12ms
Stream size : 116 MiB (12%)
Title :
Language : Russian

Audio #2
ID : 3
Format : MPEG Audio
Format version : Version 1
Format profile : Layer 3
Mode : Joint stereo
Mode extension : MS Stereo
Codec ID : A_MPEG/L3
Codec ID/Hint : MP3
Duration : 1h 24mn
Bit rate mode : Constant
Bit rate : 112 Kbps
Channel(s) : 2 channels
Sampling rate : 48.0 KHz
Compression mode : Lossy
Delay relative to video : 4ms
Stream size : 67.6 MiB (7%)
Title :
Language : Russian

Audio #3
ID : 4
Format : AAC
Format/Info : Advanced Audio Codec
Format profile : LC
Codec ID : A_AAC
Duration : 1h 24mn
Channel(s) : 6 channels
Channel positions : Front: L C R, Side: L R, LFE
Sampling rate : 48.0 KHz
Compression mode : Lossy
Delay relative to video : 12ms
Title :
Language : English

Text #1
ID : 5
Format : UTF-8
Codec ID : S_TEXT/UTF8
Codec ID/Info : UTF-8 Plain Text
Title :
Language : English

Text #2
ID : 6
Format : UTF-8
Codec ID : S_TEXT/UTF8
Codec ID/Info : UTF-8 Plain Text
Title :
Language : English









реклама партнёра


Вернуться к началу
 Профиль Отправить личное сообщение  
 
   Похожие торренты   Автор   Торрент   Размер 
В этой теме нет новых непрочитанных сообщений. Патрик / Patrick [ужасы, фантастика, триллер, 2013] HDRip, dvo

Dracon

277 | 14

1.47 ГБ

В этой теме нет новых непрочитанных сообщений. Патрик / Patrick [ужасы, фантастика, триллер, 2013] BDRip 720p, dvo

Dracon

42 | 4

5.61 ГБ

В этой теме нет новых непрочитанных сообщений. Голая добыча / The Naked Prey [Приключения, драма, 1966] DVD-9, Mvo+Sub

salma3

6 | 6

7.35 ГБ

В этой теме нет новых непрочитанных сообщений. Голая добыча / The Naked Prey [Приключения, драма, 1966] HDTV 1080i, Mvo

salma3

58 | 11

3.32 ГБ

В этой теме нет новых непрочитанных сообщений. Ночевка / The Overnight (Патрик Брайс) [комедия, детектив, 2015] WEB-DLRip, Dub [iTunes]

Dracon

7093 | 511

1.37 ГБ

В этой теме нет новых непрочитанных сообщений. Недооформлен Неудержимые 3 / The Expendables 3 (Патрик Хьюз) [2014 г., боевик, триллер, приключения, DVDScr-AVC] Данный торрент является блокированным, причина: недооформленный торрент

max77777

3 | 6

2 ГБ

В этой теме нет новых непрочитанных сообщений. От А до Я / A to Z [s01] (Майкл Патрик Джэнн, Стив Пинк) [2014-2015, комедия, WEB-DLRip | AlexFilm]

Nickolas3435

58 | 20

3.23 ГБ


Начать новую тему Ответить на тему  [ 1 сообщение ] 




Для Мосгорсуда, Роскомнадзора и рекламодателей:: mosgorsud-torrent[собачка]yandex.ru