Торрент файл
скачать торрент магнет ссылка Добавлен: 25 май 2011, 07:03
Размер: 1.46 ГБ
Сидеров: 98
Личеров: 7
Автор

СообщениеДобавлено: 25 май 2011, 07:03 

Не в сети
Супермодератор
Аватара пользователя
Дата регистрации:
22 май 2010, 11:03
Возраст: 32
Спасибо: 7690 / 13
Сообщения: 49871
Открытое море: Новые жертвы / The Reef



Перевод: Профессиональный (многоголосый, закадровый), cубтитры: русские, английские
Формат: HDRip-AVC, MKV, H.264, AC3
Страна: Австралия
Режиссер: Эндрю Трауки
Жанр: ужасы, триллер, драма
Продолжительность: 01:27:52
Год выпуска: 2010

В ролях: Эдриэнн Пикеринг, Зои Нэйлор, Гайтон Грантли, Damian Walshe-Howling, Киран Дарси-Смит

Описание: Фильм основан на реальных событиях. Несколько молодых людей терпят кораблекрушение в море. Днище лодки пробито, скоро она перевернется, они знают, что их искать никто не будет, а единственный шанс спастись — доплыть до виднеющегося вдалеке острова. Некислая картина представляется. Ссора ребят перерастает в жесткий конфликт, кто-то готов плыть, а кто-то хочет остаться у перевернувшейся лодки. Дополнит эту картину, конечно же кровавыми красками, огромная акула, преследующая горе-мореплавателей…



Видео: 1040 x 442 (2.353), 23.976 fps, AVC, High@L3.1, х264, ~ 2 088 Kbps Kbps, 0.189 bit/pixel
Аудио: 48 kHz, AC3 Dolby Digital, 3/2 (L,C,R,l,r) + LFE ch, ~256 kbps

General
Unique ID: 184543177343727664555683479611564874641 (0x8AD5B91EE862AB0FB2B9BAE68657DB91)
Complete name: E:\РЕЛИЗЫ\Все релизы 12\otkrytoe_more_novie_zhertvy_[tfile.ru].mkv
Format: Matroska
File size: 1.46 GiB
Duration: 1h 27mn
Overall bit rate: 2 391 Kbps
Movie name: Открытое море: Новые жертвы / The Reef (2010) HDRip-AVC от FireBit
Encoded date: UTC 2011-02-19 12:51:23
Writing application: mkvmerge v2.3.0 ('Freak U') built on Sep8 2008 18:32:16
Writing library: libebml v0.7.7 + libmatroska v0.8.1

Video
ID: 1
Format: AVC
Format/Info: Advanced Video Codec
Format profile: High@L3.1
Format settings, CABAC: Yes
Format settings, ReFrames: 4 frames
Format settings, GOP: M=2, N=16
Codec ID: V_MPEG4/ISO/AVC
Duration: 1h 27mn
Bit rate: 2 088 Kbps
Width: 1 040 pixels
Height: 442 pixels
Display aspect ratio: 2.35:1
Frame rate: 23.976 fps
Color space: YUV
Chroma subsampling: 4:2:0
Bit depth: 8 bits
Scan type: Progressive
Bits/(Pixel*Frame): 0.189
Stream size: 1.28 GiB (87%)
Language: English

Audio
ID: 2
Format: AC-3
Format/Info: Audio Coding 3
Mode extension: CM (complete main)
Codec ID: A_AC3
Duration: 1h 27mn
Bit rate mode: Constant
Bit rate: 256 Kbps
Channel(s): 6 channels
Channel positions: Front: L C R, Side: L R, LFE
Sampling rate: 48.0 KHz
Bit depth: 16 bits
Compression mode: Lossy
Delay relative to video: 5ms
Stream size: 161 MiB (11%)
Language: Russian

Text #1
ID: 3
Format: UTF-8
Codec ID: S_TEXT/UTF8
Codec ID/Info: UTF-8 Plain Text
Language: English

Text #2
ID: 4
Format: UTF-8
Codec ID: S_TEXT/UTF8
Codec ID/Info: UTF-8 Plain Text
Language: Russian

Text #3
ID: 5
Format: UTF-8
Codec ID: S_TEXT/UTF8
Codec ID/Info: UTF-8 Plain Text
Language: English
























реклама партнёра


Вернуться к началу
 Профиль Отправить личное сообщение  
 
   Похожие торренты   Автор   Торрент   Размер 
В этой теме нет новых непрочитанных сообщений. Открытое море / Open Water [Триллер, драма, 2003] BDRemux 1080p, Dub+Mvo+Sub

salma3

62 | 18

15.69 ГБ

В этой теме нет новых непрочитанных сообщений. Новые центурионы / The New Centurions [боевик, триллер, драма, криминал, 1972] HDRip, Dub+Dvo

salma3

84 | 20

1.45 ГБ

В этой теме нет новых непрочитанных сообщений. Питбуль. Новые порядки / Pitbull. New orders [боевик, триллер, драма, криминал, 2016] HDRip, Avo

salma3

65 | 5

2.08 ГБ

В этой теме нет новых непрочитанных сообщений. Снег в раю / Snow in Paradise (Эндрю Хьюм) [Триллер, драма, криминал, 2014] HDRip, dvo

Dracon

399 | 37

1.41 ГБ

В этой теме нет новых непрочитанных сообщений. Мертвое море / The Dead Se (Т.А. Уильямс) [Ужасы, Боевик, Триллер, 2014] DVDRip, mvo

Dracon

3 | 3

1.45 ГБ

В этой теме нет новых непрочитанных сообщений. Чёрное море / Black Sea (Кевин МакДональд) [Триллер, приключения, 2014] HDRip, Mvo [Лицензия]

Dracon

12 | 3

2.06 ГБ

В этой теме нет новых непрочитанных сообщений. Захват в Северном море / North Sea Hijack [боевик, триллер, приключения, 1979] HDRip, dvo

salma3

30 | 2

1.45 ГБ


Начать новую тему Ответить на тему  [ 1 сообщение ] 




Для Мосгорсуда, Роскомнадзора и рекламодателей:: mosgorsud-torrent[собачка]yandex.ru