Торрент файл
скачать торрент магнет ссылка Добавлен: 25 май 2011, 07:02
Размер: 2.19 ГБ
Сидеров: 5
Личеров: 11
Автор

СообщениеДобавлено: 25 май 2011, 07:02 

Не в сети
Супермодератор
Аватара пользователя
Дата регистрации:
22 май 2010, 11:03
Возраст: 31
Спасибо: 7509 / 13
Сообщения: 49940
Лепрекон 4: В космосе / Leprechaun 4: In Space



Перевод: Профессиональный (многоголосый закадровый)
Субтитры: отсутствуют
Формат: DVDRip-AVC, MKV, H264, AC3
Страна: США
Жанр: ужасы
Продолжительность: 01:35:06
Режиссер: Брайан Тренчард-Смит / Brian Trenchard-Smith
Год выпуска: 1997

В ролях: Уорвик Дэвис, Ребекка Кросс, Брент Джэсмер, Джессика Коллинз

Описание:В межпланетных глубинах 21-го века злой гном Лепрекон задумал жениться на прекрасной принцессе Зарине. Ей на помощь приходит отряд космических рейнджеров, но и кровожадный карлик проникает на звездолет. Здесь, где возможны самые невероятные фантастические перевоплощения, начинается очередной раунд битвы с Лепреконом…



Видео:708x480 (4:3), 29.97fps, x264 core 105, 2 849 Kbps, 0.273 bit/pixel
Аудио:48 kHz, Dolby AC-3, 6 channels (Front: L C R, Side: L R, LFE), 448 Kbps


General
Complete name : Лепрекон 4 в космосе.mkv
Format : Matroska
File size : 2.19 GiB
Duration : 1h 35mn
Overall bit rate : 3 297 Kbps
Encoded date : UTC 2010-11-22 22:57:03
Writing application : mkvmerge v4.4.0 ('Die Wiederkehr') сборка от Oct 31 2010 21:52:48
Writing library : libebml v1.0.0 + libmatroska v1.0.0
Video #1
ID : 1
Format : AVC
Format/Info : Advanced Video Codec
Format profile : High@L3.0
Format settings, CABAC : Yes
Format settings, ReFrames : 5 frames
Muxing mode : Container profile=Unknown@3.0
Codec ID : V_MPEG4/ISO/AVC
Duration : 1h 35mn
Bit rate : 2 783 Kbps
Nominal bit rate : 2 849 Kbps
Width : 708 pixels
Height : 480 pixels
Display aspect ratio : 4:3
Frame rate : 29.970 fps
Resolution : 24 bits
Colorimetry : 4:2:0
Scan type : Progressive
Bits/(Pixel*Frame) : 0.273
Stream size : 1.85 GiB (84%)
Writing library : x264 core 105 r1724 b02df7b
Encoding settings : cabac=1 / ref=5 / deblock=1:-1:-1 / analyse=0x3:0x113 / me=umh / subme=8 / psy=1 / psy_rd=1.00:0.15 / mixed_ref=1 / me_range=16 / chroma_me=1 / trellis=1 / 8x8dct=1 / cqm=0 / deadzone=21,11 / fast_pskip=1 / chroma_qp_offset=-3 / threads=3 / sliced_threads=0 / nr=0 / decimate=1 / interlaced=0 / constrained_intra=0 / bframes=3 / b_pyramid=2 / b_adapt=2 / b_bias=0 / direct=3 / weightb=1 / open_gop=0 / weightp=2 / keyint=250 / keyint_min=25 / scenecut=40 / intra_refresh=0 / rc_lookahead=50 / rc=2pass / mbtree=1 / bitrate=2849 / ratetol=1.0 / qcomp=0.60 / qpmin=10 / qpmax=51 / qpstep=4 / cplxblur=20.0 / qblur=0.5 / ip_ratio=1.40 / aq=1:1.00
Audio #2
ID : 2
Format : AC-3
Format/Info : Audio Coding 3
Codec ID : A_AC3
Duration : 1h 35mn
Bit rate mode : Constant
Bit rate : 448 Kbps
Channel(s) : 6 channels
Channel positions : Front: L C R, Surround: L R, LFE
Sampling rate : 48.0 KHz
Video delay : 15s 200ms
Stream size : 305 MiB (14%)









реклама партнёра


Вернуться к началу
 Профиль Отправить личное сообщение  
 
   Похожие торренты   Автор   Торрент   Размер 
В этой теме нет новых непрочитанных сообщений. Лепрекон 4: В космосе / Leprechaun 4: In Space [ужасы, фантастика, комедия, 1996] BDRemux, Mvo+Avo+Sub

salma3

1 | 4

18.81 ГБ

В этой теме нет новых непрочитанных сообщений. Лепрекон 4: В космосе / Leprechaun 4: In Space [ужасы, фантастика, комедия, 1996] BDRip, Mvo

salma3

16 | 2

1.45 ГБ

В этой теме нет новых непрочитанных сообщений. Лепрекон: Начало / Leprechaun: Origins [Ужасы, 2014] WEB-DL 720p, avo

Dracon

348 | 29

2.87 ГБ

В этой теме нет новых непрочитанных сообщений. Лепрекон / Leprechaun [ужасы, фэнтези, комедия, 1993] BDRip, Mvo

salma3

24 | 6

1.45 ГБ

В этой теме нет новых непрочитанных сообщений. Лепрекон: Начало / Leprechaun: Origins [Ужасы, 2014] WEB-DLRip, Avo

salma3

383 | 8

1.37 ГБ

В этой теме нет новых непрочитанных сообщений. Лепрекон / Leprechaun [ужасы, фэнтези, комедия, 1993] BDRip 1080p, Mvo+Sub

salma3

14 | 4

7.75 ГБ

В этой теме нет новых непрочитанных сообщений. Обман / Absolute Deception (Брайан Тренчард-Смит) [Боевик, 2013] HDRip, Mvo

Dracon

491 | 17

1.46 ГБ


Начать новую тему Ответить на тему  [ 1 сообщение ] 




Для Мосгорсуда, Роскомнадзора и рекламодателей:: mosgorsud-torrent[собачка]yandex.ru