Торрент файл
скачать торрент магнет ссылка Добавлен: 25 май 2011, 07:01
Размер: 2.22 ГБ
Сидеров: 14
Личеров: 11
Автор

СообщениеДобавлено: 25 май 2011, 07:01 

Не в сети
Супермодератор
Аватара пользователя
Дата регистрации:
22 май 2010, 11:03
Возраст: 32
Спасибо: 7690 / 13
Сообщения: 49871
Восставшие из мертвых / Undead

Перевод: Профессиональный (многоголосый, закадровый), cубтитры: отсутствуют
Формат: HDRip, MKV, H.264, AC3
Страна: Австралия
Режиссер: Майкл Спириг, Питер Спириг
Жанр: Ужасы
Продолжительность: 01:39:51
Год выпуска: 2003

В ролях: Фелисити Мэйсон, Манго МакКэй, Роб Дженкинс, Лиза Каннингэм, Дирк Хантер, Эмма Рэндолл, Стив Григ, Ноэль Шеридан, Gaynor Wensley, Элинор Стиллман

Описание: Провинциальный городок Беркли славен зелеными лугами, хорошей рыбалкой, чистым воздухом и приветливыми жителями. Но всему этому приходит конец, когда на Беркли обрушивается дождь из метеоритов, зараженных внеземной инфекцией.
Один за другим жители городка превращаются в «живых мертвецов», жаждущих человеческой плоти. Те немногие, кто избежал этой участи, прячутся на отдаленной ферме. Но «живые мертвецы» настигают их и здесь. Даже если кому-то и удастся выбраться с фермы, их ждут новые, еще более жуткие испытания…




Видео: 1280х720p (16:9), 25 fps, MPEG4 AVC (x264) High@L4.1, ~2 810 Kbps avg, 0.122 bits/pixel
Аудио: Русский: 48.0 kHz, AC3, 6 ch, ~384 kbps avg [Профессиональный (многоголосный закадровый)]

Доп. информация:
    Релиз Группа | Автор Рипа:
    Бюджет Фильма: AUD 1 000 000
    Кассовые сборы в США: $41 196


General
Unique ID: 194578283815711603406171955566048067187 (0x92626A11B72531F8A2157D3579EA3E73)
Complete name: E:\Фильмы\undead_[tfile.ru].mkv
Format: Matroska
File size: 2.22 GiB
Duration: 1h 39mn
Overall bit rate: 3 183 Kbps
Movie name: Rip by Romeo [NOLIMITS-TEAM.RU]
Encoded date: UTC 2011-01-26 12:13:00
Writing application: mkvmerge v3.0.0 ('Hang up your Hang-Ups') built on Dec 12 2009 15:20:35
Writing library: libebml v0.7.9 + libmatroska v0.8.1

Video
ID: 1
Format: AVC
Format/Info: Advanced Video Codec
Format profile: High@L4.1
Format settings, CABAC: Yes
Format settings, ReFrames: 3 frames
Format settings, GOP: M=4, N=24
Codec ID: V_MPEG4/ISO/AVC
Duration: 1h 39mn
Bit rate mode: Variable
Bit rate: 2 810 Kbps
Maximum bit rate: 17.5 Mbps
Width: 1 280 pixels
Height: 720 pixels
Display aspect ratio: 16:9
Frame rate: 25.000 fps
Color space: YUV
Chroma subsampling: 4:2:0
Bit depth: 8 bits
Scan type: Progressive
Bits/(Pixel*Frame): 0.122
Stream size: 1.91 GiB (86%)
Title: Восставшие из мертвых.
Writing library: x264 core 112 r1867 22bfd31
Encoding settings: cabac=1 / ref=1 / deblock=1:0:0 / analyse=0x3:0x3 / me=dia / subme=1 / psy=1 / psy_rd=0.00:0.00 / mixed_ref=0 / me_range=16 / chroma_me=1 / trellis=0 / 8x8dct=1 / cqm=0 / deadzone=21,11 / fast_pskip=1 / chroma_qp_offset=0 / threads=6 / sliced_threads=0 / slices=4 / nr=0 / decimate=1 / interlaced=0 / constrained_intra=0 / bframes=3 / b_pyramid=1 / b_adapt=1 / b_bias=0 / direct=1 / weightb=1 / open_gop=0 / weightp=1 / keyint=24 / keyint_min=1 / scenecut=40 / intra_refresh=0 / rc_lookahead=0 / rc=abr / mbtree=0 / bitrate=2810 / ratetol=1.0 / qcomp=0.60 / qpmin=0 / qpmax=51 / qpstep=4 / vbv_maxrate=17500 / vbv_bufsize=14500 / nal_hrd=vbr / ip_ratio=1.10 / pb_ratio=1.10 / aq=1:1.00
Language: English

Audio
ID: 2
Format: AC-3
Format/Info: Audio Coding 3
Mode extension: CM (complete main)
Codec ID: A_AC3
Duration: 1h 39mn
Bit rate mode: Constant
Bit rate: 384 Kbps
Channel(s): 6 channels
Channel positions: Front: L C R, Side: L R, LFE
Sampling rate: 48.0 KHz
Bit depth: 16 bits
Compression mode: Lossy
Stream size: 274 MiB (12%)
Title: Профессиональный (многоголосый закадровый)
Language: Russian








реклама партнёра


Вернуться к началу
 Профиль Отправить личное сообщение  
 
   Похожие торренты   Автор   Торрент   Размер 
В этой теме нет новых непрочитанных сообщений. Патруль времени / Predestination (Майкл Спириг, Питер Спириг) [фантастика, боевик, триллер, драма, детектив, 2014] Blu-Ray, Dub

Dracon

9 | 5

18.22 ГБ

В этой теме нет новых непрочитанных сообщений. Восставшие мертвецы: конец игры / Dead Rising: Endgame [ужасы, боевик, 2016] HDRip, Mvo

salma3

538 | 58

1.37 ГБ

В этой теме нет новых непрочитанных сообщений. Восставшие мертвецы: конец игры / Dead Rising: Endgame [Ужасы,боевик, 2016] HDRip, Avo

salma3

256 | 6

1.38 ГБ

В этой теме нет новых непрочитанных сообщений. Восставшие мертвецы / Dead Rising: Watchtower (Зак Липовски) [Боевик, Ужасы, Триллер, 2015] HDRip, Mvo [Официальный]

Dracon

12 | 1

2.05 ГБ

В этой теме нет новых непрочитанных сообщений. Восставшие мертвецы / Dead Rising: Watchtower (Зак Липовски) [Боевик, Ужасы, Триллер, 2015] HDRip, Mvo [официальное]

Dracon

2691 | 92

1.46 ГБ

В этой теме нет новых непрочитанных сообщений. Мой кореш - зомби / Amigo Undead [ужасы, комедия, 2015] HDRip, Dvo

salma3

3 | 2

1.46 ГБ

В этой теме нет новых непрочитанных сообщений. Париж: Город мёртвых / As Above, So Below [ужасы, триллер, 2014] HDRip, Dub [itunes]

Dracon

10 | 3

1.37 ГБ


Начать новую тему Ответить на тему  [ 1 сообщение ] 




Для Мосгорсуда, Роскомнадзора и рекламодателей:: mosgorsud-torrent[собачка]yandex.ru