Торрент файл
скачать торрент магнет ссылка Добавлен: 25 май 2011, 07:00
Размер: 1.36 ГБ
Сидеров: 11
Личеров: 5
Автор

СообщениеДобавлено: 25 май 2011, 07:00 

Не в сети
Супермодератор
Аватара пользователя
Дата регистрации:
22 май 2010, 11:03
Возраст: 32
Спасибо: 7636 / 13
Сообщения: 49923
[b]Скрытый враг / Скрытые / The Hidden[/b]

Перевод: Профессиональный (многоголосый, закадровый), cубтитры: отсутствуют
Формат: DVDRip - AVC, MKV, H.264, AC3
Страна: США
Режиссер: Джек Шолдер
Жанр: ужасы, фантастика, боевик
Продолжительность: 02:10:00
Год выпуска: 1987
В ролях: Кайл МакЛахлан, Майкл Нури, Клаудия Кристиан, Клэренс Фелдер, Клу Гулажер, Эд О`Росс, Уильям Бойетт, Ричард Брукс, Ларри Седар, Кэтерин Кэннон

Описание: Отдел по расследованию убийств не спит уже которую ночь: по городу катится волна необычных преступлений. Своеобразие их в том, что все преступники — вполне добропорядочные и законопослушные граждане, в которых будто бы сам черт вселился, заставляя их творить всяческие кошмарные, ненормальные вещи. У детектива Тома Бека, ведущего следствие по этому делу, просто голова кругом идет…
И уж, конечно же, меньше всего ему хочется оказывать всяческое содействие присланному сверху сотруднику ФБР Ллойду Гэллагеру, — человеку со странностями, логику которого понять, кажется, абсолютно невозможно. Но что если и вправду это дело рук инопланетян, вселяющихся в тела землян?




Видео: 720x384 (1.875:1), 23.976 fps, x264 ~1239 kbps avg, 0.187 bit/pixel
Audio #1: : Русский: 48.0 kHz, AC3, 2 ch, ~192 kbps avg, Профессиональный (многоголосный закадровый)
Audio #2: : Русский: 48 kHz, AC3, 6 ch, ~384.00 kbps avg, Одноголосный закадровый (А. Гаврилов)
Audio #3: : Английский 48 kHz, AC3, 2 ch, ~192.00 kbps avg, Оригинальный

Релиз группы: rip by mimigen






General
UniqueID: 227045590110632615751801609138676208212 (0xAACF63DBDB98BAC6A280B548403C9254)
Complete name: ********\skritiy_vrag_[tfile.ru].mkv
Format: Matroska
File size: 1.36 GiB
Duration: 1h 37mn
Overall bit rate: 2 008 Kbps
Encoded date: UTC 2011-04-18 18:51:00
Writing application: mkvmerge v4.0.0 ('The Stars were mine') сборка от Jun6 2010 16:18:42
Writing library: libebml v1.0.0 + libmatroska v1.0.0

Video
ID: 1
Format: AVC
Format/Info: Advanced Video Codec
Format profile: High@L4.1
Format settings, CABAC: Yes
Format settings, ReFrames: 3 frames
Codec ID: V_MPEG4/ISO/AVC
Duration: 1h 37mn
Bit rate mode: Variable
Bit rate: 1 239 Kbps
Maximum bit rate: 14.0 Mbps
Width: 720 pixels
Height: 384 pixels
Display aspect ratio: 1.875
Frame rate: 23.976 fps
Color space: YUV
Chroma subsampling: 4:2:0
Bit depth: 8 bits
Scan type: Progressive
Bits/(Pixel*Frame): 0.187
Stream size: 835 MiB (60%)
Writing library: x264 core 114 r1913 5fd3dce
Encoding settings: cabac=1 / ref=4 / deblock=1:-1:0 / analyse=0x3:0x113 / me=hex / subme=7 / psy=1 / psy_rd=1.00:0.15 / mixed_ref=1 / me_range=16 / chroma_me=1 / trellis=1 / 8x8dct=1 / cqm=0 / deadzone=21,11 / fast_pskip=1 / chroma_qp_offset=-4 / threads=3 / sliced_threads=0 / slices=4 / nr=0 / decimate=1 / interlaced=0 / constrained_intra=0 / bframes=3 / b_pyramid=1 / b_adapt=1 / b_bias=0 / direct=1 / weightb=1 / open_gop=0 / weightp=0 / keyint=24 / keyint_min=2 / scenecut=40 / intra_refresh=0 / rc_lookahead=24 / rc=2pass / mbtree=1 / bitrate=1239 / ratetol=1.0 / qcomp=0.60 / qpmin=10 / qpmax=51 / qpstep=4 / cplxblur=20.0 / qblur=0.5 / vbv_maxrate=14000 / vbv_bufsize=14500 / nal_hrd=vbr / ip_ratio=1.40 / aq=1:1.00
Language: English
Color primaries: BT.709-5, BT.1361, IEC 61966-2-4, SMPTE RP177
Transfer characteristics: BT.709-5, BT.1361
Matrix coefficients: BT.709-5, BT.1361, IEC 61966-2-4 709, SMPTE RP177

Audio #1
ID: 2
Format: AC-3
Format/Info: Audio Coding 3
Mode extension: CM (complete main)
Codec ID: A_AC3
Duration: 1h 37mn
Bit rate mode: Constant
Bit rate: 192 Kbps
Channel(s): 2 channels
Channel positions: Front: L R
Sampling rate: 48.0 KHz
Bit depth: 16 bits
Compression mode: Lossy
Stream size: 134 MiB (10%)
Language: Russian

Audio #2
ID: 3
Format: AC-3
Format/Info: Audio Coding 3
Mode extension: CM (complete main)
Codec ID: A_AC3
Duration: 1h 37mn
Bit rate mode: Constant
Bit rate: 384 Kbps
Channel(s): 6 channels
Channel positions: Front: L C R, Side: L R, LFE
Sampling rate: 48.0 KHz
Bit depth: 16 bits
Compression mode: Lossy
Stream size: 267 MiB (19%)
Language: Russian

Audio #3
ID: 4
Format: AC-3
Format/Info: Audio Coding 3
Mode extension: CM (complete main)
Codec ID: A_AC3
Duration: 1h 37mn
Bit rate mode: Constant
Bit rate: 192 Kbps
Channel(s): 2 channels
Channel positions: Front: L R
Sampling rate: 48.0 KHz
Bit depth: 16 bits
Compression mode: Lossy
Stream size: 134 MiB (10%)
Language: English




реклама партнёра


Вернуться к началу
 Профиль Отправить личное сообщение  
 
   Похожие торренты   Автор   Торрент   Размер 
В этой теме нет новых непрочитанных сообщений. Скрытые фигуры / Hidden Figures [драма, 2016] BDRip, Dub+Sub [Лицензия]

salma3

162 | 43

1.46 ГБ

В этой теме нет новых непрочитанных сообщений. Скрытые фигуры / Hidden Figures [Драма, 2016] HDRip-AVC, Dub+Sub [Лицензия]

salma3

64 | 18

1.45 ГБ

В этой теме нет новых непрочитанных сообщений. Скрытые фигуры / Hidden Figures [драма, 2016] BDRip-AVC, Dub+Sub [iTunes]

salma3

279 | 86

2.05 ГБ

В этой теме нет новых непрочитанных сообщений. Скрытые фигуры / Hidden Figures [драма, 2016] BDRip, Dub+Sub [Лицензия]

salma3

49 | 24

2.18 ГБ

В этой теме нет новых непрочитанных сообщений. Скрытые фигуры / Hidden Figures [драма, 2016] BDRip 1080p, Dub+Sub [Лицензия]

salma3

112 | 43

12.13 ГБ

В этой теме нет новых непрочитанных сообщений. Скрытые фигуры / Hidden Figures [Драма, 2016] BDRemux 1080p, Dub+Sub [Лицензия]

salma3

51 | 21

25.75 ГБ

В этой теме нет новых непрочитанных сообщений. Девушки рабыни из бесконечности / Slave Girls from beyond Infinity [Ужасы, фантастика, боевик, 1987] DVDRip, Mvo

salma3

0 | 3

1.07 ГБ


Начать новую тему Ответить на тему  [ 1 сообщение ] 




Для Мосгорсуда, Роскомнадзора и рекламодателей:: mosgorsud-torrent[собачка]yandex.ru