Торрент файл
скачать торрент магнет ссылка Добавлен: 25 май 2011, 06:59
Размер: 8.61 ГБ
Сидеров: 32
Личеров: 10
Автор

СообщениеДобавлено: 25 май 2011, 06:59 

Не в сети
Супермодератор
Аватара пользователя
Дата регистрации:
22 май 2010, 11:03
Возраст: 31
Спасибо: 7509 / 13
Сообщения: 49940
Обитель зла / Resident Evil



Слоган: «От Директора Mortal Combat и Event Horizon»

Перевод: Профессиональный (полное дублирование) + Субтитры (отдельные)
Субтитры: Русские
Формат: HDRip (BD 720p), mkv, h.264, DTS

Страна: Германия, Франция, Великобритания

Режиссер: Пол У. С. Андерсон
Жанр: Ужасы, Фантастика, Боевик, Триллер, Приключения
Продолжительность: 01:40:23
Год выпуска: 2002

В ролях: Милла Йовович, Мишель Родригес, Эрик Мэбиас, Джеймс Пьюрфой, Мартин Крюз, Колин Сэлмон, Райан МакКласки, Оскар Пирс, Индра Ове, Анна Болт

Описание: В гигантской подземной лаборатории на волю вырывается опаснейший вирус, мгновенно превращая своих жертв в прожорливых зомби. Достаточно одного их укуса или царапины страшных когтей, чтобы человек стал обезумевшим пожирателем живой плоти.Военные посылают в секретный комплекс, кишащий ужасными мутировавшими животными и голодными монстрами, группу спецназа, к которой присоединяются очаровательная Элис и отважный полицейский Мэтт. У них есть только три часа, чтобы уничтожить вирус до того, как он распространится по всей Земле…







Видео: 1280*694(16:9), 23,976 fps, MPEG4/ISO/AVC , High@L4.1, х264, ~ 2 496 Kbps avg, 0.117 bit/pixel
Аудио: 48,0 KHz,DTS LCR, L,R, LFE, 6 channels, 755 Kbps

Релиз группы:

C:\Documents and Settings\Admin\Мои документы\квадрология обитель зла\Обитель зла.[nolimits-team.ru].mkv
General
Complete name : C:\Documents and Settings\Admin\Мои документы\квадрология обитель зла\Обитель зла.[nolimits-team.ru].mkv
Format : Matroska
File size : 2.33 GiB
Duration : 1h 40mn
Overall bit rate : 3 317 Kbps
Movie name : Обитель зла от [Mo0NsTR] FlintFilms.Ru
Encoded date : UTC 2010-06-26 16:23:03
Writing application : mkvmerge v3.1.0 ('Happy up here') built on Jan 19 2010 12:09:24
Writing library : libebml v0.7.9 + libmatroska v0.8.1
Cover : Yes / Yes / Yes / Yes
Video #1
ID : 1
Format : AVC
Format/Info : Advanced Video Codec
Format profile : High@L4.1
Format settings, CABAC : Yes
Format settings, ReFrames : 3 frames
Muxing mode : Container profile=Unknown@4.1
Codec ID : V_MPEG4/ISO/AVC
Duration : 1h 40mn
Bit rate : 2 496 Kbps
Nominal bit rate : 2 590 Kbps
Width : 1 280 pixels
Height : 694 pixels
Display aspect ratio : 16:9
Frame rate : 23.976 fps
Resolution : 24 bits
Colorimetry : 4:2:0
Scan type : Progressive
Bits/(Pixel*Frame) : 0.117
Stream size : 1.75 GiB (75%)
Writing library : x264 core 96 r1613 81e75e9
Encoding settings : cabac=1 / ref=4 / deblock=1:0:0 / analyse=0x3:0x113 / me=umh / subme=8 / psy=1 / psy_rd=1.00:0.00 / mixed_ref=1 / me_range=16 / chroma_me=1 / trellis=1 / 8x8dct=1 / cqm=0 / deadzone=21,11 / fast_pskip=1 / chroma_qp_offset=-2 / threads=6 / sliced_threads=0 / slices=4 / nr=0 / decimate=1 / interlaced=0 / constrained_intra=0 / bframes=3 / b_pyramid=1 / b_adapt=1 / b_bias=0 / direct=3 / weightb=1 / weightp=0 / keyint=24 / keyint_min=1 / scenecut=40 / intra_refresh=0 / rc_lookahead=24 / rc=abr / mbtree=1 / bitrate=2590 / ratetol=1.0 / qcomp=0.60 / qpmin=0 / qpmax=51 / qpstep=4 / vbv_maxrate=17500 / vbv_bufsize=14500 / ip_ratio=1.10 / aq=1:1.00 / nal_hrd=vbr
Language : English
Audio #2
ID : 2
Format : DTS
Format/Info : Digital Theater Systems
Codec ID : A_DTS
Duration : 1h 40mn
Bit rate mode : Constant
Bit rate : 755 Kbps
Channel(s) : 6 channels
Channel positions : Front: L C R, Surround: L R, LFE
Sampling rate : 48.0 KHz
Resolution : 24 bits
Stream size : 542 MiB (23%)
Language : Russian
Text #3
ID : 3
Format : UTF-8
Codec ID : S_TEXT/UTF8
Codec ID/Info : UTF-8 Plain Text
Language : Russian
______________________________






____________________________________________________________________________________________________________________________________________


Обитель зла 2: Апокалипсис / Resident Evil: Apocalypse



Слоган: «Она прошла через катакомбы, кишащие зомби. Теперь на её пути целый город...»

Перевод: Профессиональный (полное дублирование)
Субтитры: Отсутствуют
Формат: HDRip (BD 720p), mkv, h.264, ac3

Страна: Германия, Канада, Франция, Великобритания

Режиссер: Пол У. С. Андерсон
Жанр: Ужасы, Фантастика, Боевик, Триллер
Продолжительность: 01:33:48
Год выпуска: 2004

В ролях: Милла Йовович, Сиенна Гиллори, Одед Фер, Томас Кречманн, Софи Вавасо, Разаак Адоти, Джаред Харрис, Майк Еппс, Сандрин Холт, Мэттью Дж. Тейлор

Описание: Действие картины разворачивается на улицах печально известного Ракун-сити, города, контролируемого могущественной корпорацией «Амбрелла». После химический катастрофы все жители стали медленно превращаться в зомби, а те немногочисленные граждане, чей разум ещё не был до конца изъеден ужасным вирусом, доживали свои последние дни в атмосфере страха и желания скорейшей смерти…







Видео: 1280*536(2,35:1), 23,976 fps, MPEG4/ISO/AVC , High@L4.1, х264, ~ 2 959 Kbps avg, 0.180 bit/pixel
Аудио: 48,0 KHz,AC3 LCR, L,R, LFE, 6 channels, 384 Kbps

Релиз группы:

C:\Documents and Settings\Admin\Мои документы\квадрология обитель зла\Обитель зла 2 - Апокалипсис.[nolimits-team.ru].mkv
General
Complete name : C:\Documents and Settings\Admin\Мои документы\квадрология обитель зла\Обитель зла 2 - Апокалипсис.[nolimits-team.ru].mkv
Format : Matroska
File size : 2.23 GiB
Duration : 1h 33mn
Overall bit rate : 3 411 Kbps
Movie name : Обитель зла 2 - Апокалипсис
Encoded date : UTC 2010-06-29 20:55:05
Writing application : mkvmerge v3.1.0 ('Happy up here') built on Jan 19 2010 12:09:24
Writing library : libebml v0.7.9 + libmatroska v0.8.1
Cover : Yes / Yes
Video #1
ID : 1
Format : AVC
Format/Info : Advanced Video Codec
Format profile : High@L4.1
Format settings, CABAC : Yes
Format settings, ReFrames : 3 frames
Muxing mode : Container profile=Unknown@4.1
Codec ID : V_MPEG4/ISO/AVC
Duration : 1h 33mn
Bit rate : 2 959 Kbps
Nominal bit rate : 3 048 Kbps
Width : 1 280 pixels
Height : 536 pixels
Display aspect ratio : 2.35:1
Frame rate : 23.976 fps
Resolution : 24 bits
Colorimetry : 4:2:0
Scan type : Progressive
Bits/(Pixel*Frame) : 0.180
Stream size : 1.94 GiB (87%)
Writing library : x264 core 96 r1613 81e75e9
Encoding settings : cabac=1 / ref=4 / deblock=1:0:0 / analyse=0x3:0x113 / me=umh / subme=8 / psy=1 / psy_rd=1.00:0.00 / mixed_ref=1 / me_range=16 / chroma_me=1 / trellis=1 / 8x8dct=1 / cqm=0 / deadzone=21,11 / fast_pskip=1 / chroma_qp_offset=-2 / threads=6 / sliced_threads=0 / slices=4 / nr=0 / decimate=1 / interlaced=0 / constrained_intra=0 / bframes=3 / b_pyramid=1 / b_adapt=1 / b_bias=0 / direct=3 / weightb=1 / weightp=0 / keyint=24 / keyint_min=1 / scenecut=40 / intra_refresh=0 / rc_lookahead=24 / rc=abr / mbtree=1 / bitrate=3048 / ratetol=1.0 / qcomp=0.60 / qpmin=0 / qpmax=51 / qpstep=4 / vbv_maxrate=17500 / vbv_bufsize=14500 / ip_ratio=1.10 / aq=1:1.00 / nal_hrd=vbr
Language : English
Audio #2
ID : 2
Format : AC-3
Format/Info : Audio Coding 3
Codec ID : A_AC3
Duration : 1h 33mn
Bit rate mode : Constant
Bit rate : 384 Kbps
Channel(s) : 6 channels
Channel positions : Front: L C R, Surround: L R, LFE
Sampling rate : 48.0 KHz
Stream size : 258 MiB (11%)
Language : Russian
______________________________







____________________________________________________________________________________________________________________________________________


Обитель зла 3 / Resident Evil: Extinction



Слоган: «На этот раз без компромиссов»

Перевод: Профессиональный (многоголосый, закадровый)
Субтитры: Отсутствуют
Формат: HDRip (BD 720p), mkv, h.264, ac3

Страна: США, Германия, Франция, Великобритания, Австралия

Режиссер: Пол У. С. Андерсон
Жанр: Ужасы, Фантастика, Боевик, Триллер
Продолжительность: 01:34:05
Год выпуска: 2007

В ролях: Милла Йовович, Одед Фер, Эли Лартер, Айэйн Глен, Ашанти, Кристофер Иган, Спенсер Лок, Мэттью Мэрсден, Линден Эшби, Джейсон О'Мара

Описание: Элис, не раз уже спасавшая мир от смертельных вирусов и неминуемой гибели, вновь взялась за оружие. На этот раз ей предстоит сразиться с корпорацией «Амбрелла», работающей над реализацией зверского антигуманного проекта. Коварные политики и прагматичные ученые стремятся уничтожить людей и заменить их на более «совершенные» создания, заселив Землю неуязвимыми бессмертными клонами…







Видео: 1280*544(2,35:1), 23,976 fps, MPEG4/ISO/AVC , High@L4.1, х264, ~ 2 564 Kbps avg, 0.154 bit/pixel
Аудио: 48,0 KHz,AC3 LCR, L,R, LFE, 6 channels, 448 Kbps

Релиз группы:

C:\Documents and Settings\Admin\Мои документы\resident_evil_quadrology_[tfile.ru]\resident_evil_3.mkv
General
Complete name : C:\Documents and Settings\Admin\Мои документы\resident_evil_quadrology_[tfile.ru]\resident_evil_3.mkv
Format : Matroska
File size : 2.02 GiB
Duration : 1h 34mn
Overall bit rate : 3 073 Kbps
Movie name : Rip by Romeo (FLINTFILMS.RU)
Encoded date : UTC 2010-06-04 20:48:29
Writing application : mkvmerge v3.0.0 ('Hang up your Hang-Ups') built on Dec 12 2009 15:20:35
Writing library : libebml v0.7.9 + libmatroska v0.8.1
Video #1
ID : 1
Format : AVC
Format/Info : Advanced Video Codec
Format profile : High@L4.1
Format settings, CABAC : Yes
Format settings, ReFrames : 3 frames
Muxing mode : Container profile=Unknown@4.1
Codec ID : V_MPEG4/ISO/AVC
Duration : 1h 34mn
Bit rate : 2 564 Kbps
Nominal bit rate : 2 677 Kbps
Width : 1 280 pixels
Height : 544 pixels
Display aspect ratio : 2.35:1
Original display aspect ratio : 2.35:1
Frame rate : 23.976 fps
Resolution : 24 bits
Colorimetry : 4:2:0
Scan type : Progressive
Bits/(Pixel*Frame) : 0.154
Stream size : 1.68 GiB (83%)
Title : Обитель зла 3.[flintfilms.ru]
Writing library : x264 core 96 r1613 81e75e9
Encoding settings : cabac=1 / ref=1 / deblock=1:0:0 / analyse=0x3:0x3 / me=dia / subme=1 / psy=1 / psy_rd=0.00:0.00 / mixed_ref=0 / me_range=16 / chroma_me=1 / trellis=0 / 8x8dct=1 / cqm=0 / deadzone=21,11 / fast_pskip=1 / chroma_qp_offset=0 / threads=6 / sliced_threads=0 / slices=4 / nr=0 / decimate=1 / interlaced=0 / constrained_intra=0 / bframes=3 / b_pyramid=1 / b_adapt=1 / b_bias=0 / direct=1 / weightb=1 / weightp=0 / keyint=24 / keyint_min=1 / scenecut=40 / intra_refresh=0 / rc_lookahead=24 / rc=abr / mbtree=0 / bitrate=2677 / ratetol=1.0 / qcomp=0.60 / qpmin=0 / qpmax=51 / qpstep=4 / vbv_maxrate=17500 / vbv_bufsize=14500 / ip_ratio=1.10 / pb_ratio=1.10 / aq=1:1.00 / nal_hrd=vbr
Language : English
Audio #2
ID : 2
Format : AC-3
Format/Info : Audio Coding 3
Codec ID : A_AC3
Duration : 1h 34mn
Bit rate mode : Constant
Bit rate : 448 Kbps
Channel(s) : 6 channels
Channel positions : Front: L C R, Surround: L R, LFE
Sampling rate : 48.0 KHz
Stream size : 302 MiB (15%)
Title : Профессиональный (многоголосый, закадровый)
Language : Russian
______________________________







____________________________________________________________________________________________________________________________________________


Обитель зла 4: Жизнь после смерти / Resident Evil: Afterlife



Слоган: «Испытайте новое измерение зла»

Перевод: Профессиональный (полное дублирование)
Субтитры: Отсутствуют
Формат: HDRip (BD 720p), mkv, h.264, ac3

Страна: Германия, Франция, Великобритания

Режиссер: Пол У. С. Андерсон
Жанр: Ужасы, Фантастика, Боевик, Триллер, Приключения
Продолжительность: 01:36:52
Год выпуска: 2010

В ролях: Милла Йовович, Эли Лартер, Ким Коутс, Шоун Робертс, Серджо Перис-Менчета, Спенсер Лок, Борис Коджо, Вентворт Миллер, Сиенна Гиллори, Кейси Барнфилд

Описание: Элис продолжает свой путь в мире, поражённом вирусной инфекцией, превращающей людей в нежить. Героиня ищет оставшихся в живых, чтобы вывести их в безопасное место. Её смертельная битва с корпорацией Амбрелла выходит на новый уровень…







Видео: 1280*532(2,40:1), 23,976 fps, MPEG4/ISO/AVC , High@L4.1, х264, ~ 2 488 Kbps avg, 0.152 bit/pixel
Аудио: 48,0 KHz,AC3 LCR, L,R, LFE, 6 channels, 448 Kbps

Релиз группы:

C:\Documents and Settings\Admin\Мои документы\resident_evil_quadrology_[tfile.ru]\resident_evil_4_afterlife.mkv
General
Complete name : C:\Documents and Settings\Admin\Мои документы\resident_evil_quadrology_[tfile.ru]\resident_evil_4_afterlife.mkv
Format : Matroska
File size : 2.03 GiB
Duration : 1h 36mn
Overall bit rate : 2 995 Kbps
Movie name : Rip by constman [NOLIMITS-TEAM.RU]
Encoded date : UTC 2010-11-23 17:54:20
Writing application : mkvmerge v4.0.0 ('The Stars were mine') сборка от Jun6 2010 16:18:42
Writing library : libebml v1.0.0 + libmatroska v1.0.0
Video #2
ID : 2
Format : AVC
Format/Info : Advanced Video Codec
Format profile : High@L4.1
Format settings, CABAC : Yes
Format settings, ReFrames : 3 frames
Muxing mode : Container profile=Unknown@4.1
Codec ID : V_MPEG4/ISO/AVC
Duration : 1h 36mn
Bit rate : 2 488 Kbps
Nominal bit rate : 2 575 Kbps
Width : 1 280 pixels
Height : 532 pixels
Display aspect ratio : 2.40:1
Original display aspect ratio : 2.40:1
Frame rate : 23.976 fps
Resolution : 24 bits
Colorimetry : 4:2:0
Scan type : Progressive
Bits/(Pixel*Frame) : 0.152
Stream size : 1.68 GiB (83%)
Title : Resident.Evil.Afterlife.2010.720p.[nolimits-team]
Writing library : x264 core 108 r1788 c764e29
Encoding settings : cabac=1 / ref=1 / deblock=1:0:0 / analyse=0x3:0x3 / me=dia / subme=1 / psy=1 / psy_rd=0.00:0.00 / mixed_ref=0 / me_range=16 / chroma_me=1 / trellis=0 / 8x8dct=1 / cqm=0 / deadzone=21,11 / fast_pskip=1 / chroma_qp_offset=0 / threads=3 / sliced_threads=0 / slices=4 / nr=0 / decimate=1 / interlaced=0 / constrained_intra=0 / bframes=3 / b_pyramid=1 / b_adapt=1 / b_bias=0 / direct=1 / weightb=1 / open_gop=2 / weightp=0 / keyint=24 / keyint_min=1 / scenecut=40 / intra_refresh=0 / rc_lookahead=0 / rc=abr / mbtree=0 / bitrate=2575 / ratetol=1.0 / qcomp=0.60 / qpmin=0 / qpmax=51 / qpstep=4 / vbv_maxrate=17500 / vbv_bufsize=14500 / ip_ratio=1.10 / pb_ratio=1.10 / aq=1:1.00 / nal_hrd=vbr
Audio #1
ID : 1
Format : AC-3
Format/Info : Audio Coding 3
Codec ID : A_AC3
Duration : 1h 36mn
Bit rate mode : Constant
Bit rate : 448 Kbps
Channel(s) : 6 channels
Channel positions : Front: L C R, Surround: L R, LFE
Sampling rate : 48.0 KHz
Stream size : 310 MiB (15%)
Title : дубляж.[nolimits-team]
______________________________









реклама партнёра


Вернуться к началу
 Профиль Отправить личное сообщение  
 
   Похожие торренты   Автор   Торрент   Размер 
В этой теме нет новых непрочитанных сообщений. Обитель зла. Пенталогия / Resident Evil. Pentalogy [Ужасы, фантастика, боевик, 2002-2012] HDRip, 5Dub

salma3

165 | 36

5.93 ГБ

В этой теме нет новых непрочитанных сообщений. Обитель зла: Пенталогия / Resident Evil: Pentalogy [ужасы, фантастика, 2002, 2004, 2007, 2010, 2012] BDRip, Avo [Гаврилов]

salma3

10 | 3

7.28 ГБ

В этой теме нет новых непрочитанных сообщений. Обитель зла 4: Жизнь после смерти / Resident Evil: Afterlife [боевик, ужасы, 2010] HDRip, Avo [Гаврилов]

salma3

18 | 4

1.46 ГБ

В этой теме нет новых непрочитанных сообщений. Обитель Зла: Возмездие / Resident Evil: Retribution [боевик, ужасы, 2012] HDRip, Avo [Гаврилов]

salma3

57 | 6

1.46 ГБ

В этой теме нет новых непрочитанных сообщений. Обитель зла: Последняя глава / Resident Evil: The Final Chapter [Ужасы, фантастика, боевик, триллер, 2016] HDRip-1080p, dub [Трейлер]

marya111

775 | 8

101.03 МБ

В этой теме нет новых непрочитанных сообщений. Обитель зла: Вырождение / Resident Evil: Degeneration [ужасы, фантастика, мультфильм, 2008] BDRip 720, Mvo+Sub

salma3

9 | 4

3.85 ГБ

В этой теме нет новых непрочитанных сообщений. Resident Evil 4 Ultimate HD Edition [Action, RPG, 2014] [Лицензия]

Dracon

56 | 8

11.25 ГБ


Начать новую тему Ответить на тему  [ 1 сообщение ] 




Для Мосгорсуда, Роскомнадзора и рекламодателей:: mosgorsud-torrent[собачка]yandex.ru