Торрент файл
скачать торрент магнет ссылка Добавлен: 25 май 2011, 06:56
Размер: 2.19 ГБ
Сидеров: 13
Личеров: 6
Автор

СообщениеДобавлено: 25 май 2011, 06:56 

Не в сети
Супермодератор
Аватара пользователя
Дата регистрации:
22 май 2010, 11:03
Возраст: 31
Спасибо: 7509 / 13
Сообщения: 49940
Вампиры / Vampires


Перевод: Профессиональный (полное дублирование)
Субтитры:отсутствуют
Формат: HDRip-AVC, MKV, H.264, AC3
Страна: CША, Гонконг
Режиссер: Джон Карпентер
Жанр: ужасы, фантастика, боевик
Продолжительность: 01:47:47
Год выпуска: 1998

В ролях: Джеймс Вудс, Дэниэл Болдуин, Шерил Ли Томас, Йен Гриффит, Максимилиан Шелл, Тим Гини, Марк Бун Джуниор, Грегори Сьерра, Кэри-Хироюки Тагава, Томас Розалес мл

Описание: По заданию Ватикана Джек Кроу, потомственный охотник на вампиров, и его друг, и напарник Монтойя безжалостно расправляются с вурдалаками, но их главная цель — особо опасный вампир Валек, уроженец Праги, 1300-го года рождения. В охоте на вампира Джеку и Монтойе помогает молодой священник, вооруженный знаниями из древних трактатов о кровососах.

Валек ищет в Штатах древнее распятие, обладающее особой силой. Как известно, вампиры боятся солнечных лучей, убивающих их. Проведение магического обряда с распятием позволит Валеку не бояться солнечного света и сделает его всемогущим. Охотники за вампирами должны поспешить, пока Валек еще уязвим, пока его еще можно убить…




Видео: 1280х528 (2.4:1), 24 fps, MPEG4 AVC (x264) High@L4.1, ~2 538 Kbps avg, 0.156 bits/pixel
Аудио: Русский: 48.0 kHz, AC3, 6 ch, ~384 kbps avg [Профессиональный (полное дублирование)]

Доп.инфорамция:
    Релиз группа | Автор рипа



Общее
Уникальный идентификатор: 233611662547660726700336457339629130606 (0xAFBFF83966893192846B59844DDAD36E)
Полное имя: E:\Фильмы\vampires_[tfile.ru].mkv
Формат: Matroska
Размер файла: 2,19 Гбайт
Продолжительность: 1 ч. 47 м.
Общий поток: 2903 Кбит/сек
Название фильма: Rip by Romeo
Дата кодирования: UTC 2010-12-24 18:19:24
Программа кодирования: mkvmerge v3.0.0 ('Hang up your Hang-Ups') built on Dec 12 2009 15:20:35
Библиотека кодирования: libebml v0.7.9 + libmatroska v0.8.1

Видео
Идентификатор: 1
Формат: AVC
Формат/Информация: Advanced Video Codec
Профиль формата: High@L4.1
Параметр CABAC формата: Да
Параметр ReFrames формата: 3 кадра
Идентификатор кодека: V_MPEG4/ISO/AVC
Продолжительность: 1 ч. 47 м.
Вид битрейта: Переменный
Битрейт: 2538 Кбит/сек
Максимальный битрейт: 17,5 Мбит/сек
Ширина: 1280 пикс.
Высота: 528 пикс.
Соотношение сторон: 2,40:1
Соотношение сторон в оригинале: 2,40:1
Частота кадров: 24,000 кадр/сек
Цветовое пространство: YUV
Подвыборка цветности: 4:2:0
Битовая глубина: 8 бит
Тип развёртки: Прогрессивная
Бит/(Пиксели*Кадры): 0.156
Размер потока: 1,85 Гбайт (85%)
Заголовок: Вампиры
Библиотека кодирования: x264 core 108 r1788 c764e29
Настройки программы: cabac=1 / ref=1 / deblock=1:0:0 / analyse=0x3:0x3 / me=dia / subme=1 / psy=1 / psy_rd=0.00:0.00 / mixed_ref=0 / me_range=16 / chroma_me=1 / trellis=0 / 8x8dct=1 / cqm=0 / deadzone=21,11 / fast_pskip=1 / chroma_qp_offset=0 / threads=6 / sliced_threads=0 / slices=4 / nr=0 / decimate=1 / interlaced=0 / constrained_intra=0 / bframes=3 / b_pyramid=1 / b_adapt=1 / b_bias=0 / direct=1 / weightb=1 / open_gop=0 / weightp=0 / keyint=24 / keyint_min=1 / scenecut=40 / intra_refresh=0 / rc_lookahead=0 / rc=abr / mbtree=0 / bitrate=2538 / ratetol=1.0 / qcomp=0.60 / qpmin=0 / qpmax=51 / qpstep=4 / vbv_maxrate=17500 / vbv_bufsize=14500 / ip_ratio=1.10 / pb_ratio=1.10 / aq=1:1.00 / nal_hrd=vbr
Язык: English

Аудио
Идентификатор: 2
Формат: AC-3
Формат/Информация: Audio Coding 3
Расширение режима: CM (complete main)
Идентификатор кодека: A_AC3
Продолжительность: 1 ч. 47 м.
Вид битрейта: Постоянный
Битрейт: 384 Кбит/сек
Каналы: 6 каналов
Расположение каналов: Front: L C R, Side: L R, LFE
Частота: 48,0 КГц
Битовая глубина: 16 бит
Метод сжатия: С потерями
Размер потока: 296 Мбайт (13%)
Заголовок: Профессиональный (полное дублирование)
Язык: Russian





* Фильм поставлен по одноименному роману Джона Стикли (John Steakley) и снимался на протяжении трех месяцев – со 2 июня по 4 августа 1997 года.
* Сценарист Дэн Мазур (Dan Mazur) появляется в титрах только при прокате фильма в Европе, а уже на премьере в США в 1998 году его имя исчезло из списка создателей картины.
* В эпизодической роли владельца автомобиля, который насильно отбирает у него Монтойя, снялся американский режиссер и сценарист Фрэнк Дарабонт (Frank Darabont).
* Съемки проходили в штате Нью-Мехико (США), в городах Стэнли, Санта-Фэ, Чериллос, Сан-Джулиан Пуэбло и Лас-Вегасе.
* Когда Рассел Малкэй и Дольф Лундгрен покинули проект, а ставить фильм взялся Джон Карпентер с Джеймсом Вудсом в главной роли, студия решила урезать бюджет картины на 2/3. Причем это было сделано непосредственно перед самым началом процесса производства фильма, так что сценаристу и режиссеру пришлось в срочном порядке кардинальным образом переделывать сценарий, чтобы уложиться в рамки нового бюджета.
* Джон Стикли, автор оригинального романа, после премьеры картины сказал, что фильм содержит большую часть его диалогов и ни одного его сюжетного хода.
* Символ на кулоне, который носит Монтойя, - это нордическая руна, означающая «защитник».




реклама партнёра


Вернуться к началу
 Профиль Отправить личное сообщение  
 
   Похожие торренты   Автор   Торрент   Размер 
В этой теме нет новых непрочитанных сообщений. Древние / The Originals [03х01-16 из 22] (Джозеф Морган, Дэниэл Гиллис, Чарльз Майкл Дэвис) [2015, Ужасы, фантастика, боевик, драма, вампиры, WEB-DLRip | LostFilm]

Dracon

94 | 288

5.65 ГБ

В этой теме нет новых непрочитанных сообщений. Древние / The Originals [03х01-05 из 22] (Джозеф Морган, Дэниэл Гиллис, Чарльз Майкл Дэвис) [2015, Ужасы, фантастика, боевик, драма, вампиры, WEB-DLRip | LostFilm]

Nickolas3435

358 | 887

2.33 ГБ

В этой теме нет новых непрочитанных сообщений. Штамм / The Strain [03x01-09 из 10] (Ужасы, фантастика, драма, вампиры, экранизация, 2016) HDTV 720p | IdeaFilm

marya111

0 | 0

11.37 ГБ

В этой теме нет новых непрочитанных сообщений. Штамм / The Strain [S01-03] [Ужасы, фантастика, драма, вампиры, экранизация, 2014-2016] WEB-DLRip 720p, Mvo [LostFilm]

salma3

33 | 206

47.57 ГБ

В этой теме нет новых непрочитанных сообщений. Мумия: Принц Египта / Tale of the Mummy [Ужасы, фантастика, триллер, 1998] HDRip, Dvo

salma3

70 | 7

1.46 ГБ

В этой теме нет новых непрочитанных сообщений. Тайный город (Сезон 1-2, Серия 1-16 из 16) (Александр Мохов) [2014, Фэнтези,ужасы, фантастика, драма, вампиры, экранизация, DVBRip-AVC]

Враг Нароода

65 | 24

17.87 ГБ

В этой теме нет новых непрочитанных сообщений. Ван Хельсинг / Van Helsing [01x01-06 из 13] (Ужасы, боевик, драма, фэнтези, вампиры, 2016) HDTVRip | IdeaFilm

marya111

0 | 0

3.41 ГБ


Начать новую тему Ответить на тему  [ 1 сообщение ] 




Для Мосгорсуда, Роскомнадзора и рекламодателей:: mosgorsud-torrent[собачка]yandex.ru