Торрент файл
скачать торрент магнет ссылка Добавлен: 25 май 2011, 06:55
Размер: 1.14 ГБ
Сидеров: 14
Личеров: 4
Автор

СообщениеДобавлено: 25 май 2011, 06:55 

Не в сети
Супермодератор
Аватара пользователя
Дата регистрации:
22 май 2010, 11:03
Возраст: 31
Спасибо: 7509 / 13
Сообщения: 49940
Осажденные мертвецами / Rammbock / Siege Of The Dead

Перевод: Любительский (одноголосый), cубтитры: Русские(Вшитые отключаемые)
Формат: DVDRip, MKV, XviD, MP3
Страна: Германия
Режиссер: Марвин Крен
Жанр: ужасы
Продолжительность: 01:01:31
Год выпуска: 2010

В ролях: Себастьян Ачиллес, Ингрид Бирбаум, Карстен Берендт, Мелани Берк, Эмили Кокс, Сабрина Караманна, Харольд Гейл, Йорн Хеншел

Описание: Немцы сделали отличный ужастик, который получил кучу призов. Идет фильм 1 час и рассказывает о парне, который приезжает в гости к девушки и попадает в засаду, как и часть людей,живуших в одном доме, но в разных квартирах. Фильм стоящий, жарн можно обозвать, как зомби-драма о выживание людей в зомби среде. Кстати, этот фильм чем то напомнил идущий сейчас сериал "ходячие мертвецы". Всем поклонникам зомби должно понравится



Видео: 720x384(1.875), 25 fps,XviD MPEG-4 Visual,~2348 kbps avg,0.340 bit/pixel
Аудио#1: Русский:48.0 KHz, A_MPEG/L3,2 ch,~ 128 Kbps avg[Любительский (одноголосый)]
Аудио#2: Немецкий:48.0 KHz, A_MPEG/L3,2 ch,~128 kbps avg [Оригинал]



Общее
Уникальный идентификатор : 203177821264396985913145114718516417995 (0x98DAA0000E31787FA7FC145C6E1E15CB)
Полное имя : F:\Video\Осажденные мертвецами (Rammbock) - Siege Of The Dead (2010) DVDRip\Rammbock.2010.DVDRip.mkv
Формат : Matroska
Размер файла : 1,14 Гбайт
Продолжительность : 1 ч. 1 м.
Общий поток : 2656 Кбит/сек
Программа кодирования : mkvmerge v4.7.0 ('Just Like You Imagined') сборка от Apr 21 2011 01:13:14
Библиотека кодирования : libebml v1.2.0 + libmatroska v1.1.0

Видео
Идентификатор : 1
Формат : MPEG-4 Visual
Профиль формата : Advanced Simple@L5
Параметр BVOP формата : Да
Параметр QPel формата : Нет
Параметр GMC формата : Без точки перехода
Параметр матрицы формата : Default (MPEG)
Идентификатор кодека : XVID
Идентификатор кодека/Подсказка : XviD
Продолжительность : 1 ч. 1 м.
Битрейт : 2348 Кбит/сек
Ширина : 720 пикс.
Высота : 384 пикс.
Соотношение сторон : 1,875
Частота кадров : 25,000 кадр/сек
Цветовое пространство : YUV
Подвыборка цветности : 4:2:0
Битовая глубина : 8 бит
Тип развёртки : Прогрессивная
Метод сжатия : С потерями
Бит/(Пиксели*Кадры) : 0.340
Размер потока : 1,01 Гбайт (88%)
Библиотека кодирования : XviD 1.2.1 (UTC 2008-12-04)

Аудио #1
Идентификатор : 2
Формат : MPEG Audio
Версия формата : Version 1
Профиль формата : Layer 3
Режим : Joint stereo
Расширение режима : MS Stereo
Режим смешивания : Header stripping
Идентификатор кодека : A_MPEG/L3
Идентификатор кодека/Подсказка : MP3
Продолжительность : 1 ч. 1 м.
Вид битрейта : Постоянный
Битрейт : 128 Кбит/сек
Канал(ы) : 2 канала(ов)
Частота : 48,0 КГц
Метод сжатия : С потерями
Размер потока : 56,3 Мбайт (5%)
Заголовок : Russian - VO
Язык : Russian

Аудио #2
Идентификатор : 3
Формат : MPEG Audio
Версия формата : Version 1
Профиль формата : Layer 3
Режим смешивания : Header stripping
Идентификатор кодека : A_MPEG/L3
Идентификатор кодека/Подсказка : MP3
Продолжительность : 1 ч. 1 м.
Вид битрейта : Постоянный
Битрейт : 128 Кбит/сек
Канал(ы) : 2 канала(ов)
Частота : 48,0 КГц
Метод сжатия : С потерями
Размер потока : 56,3 Мбайт (5%)
Заголовок : German
Библиотека кодирования : LAME3.98r
Настройки программы : -m s -V 4 -q 2 -lowpass 17 -b 128
Язык : German

Текст
Идентификатор : 4
Формат : UTF-8
Идентификатор кодека : S_TEXT/UTF8
Идентификатор кодека/Информация : UTF-8 Plain Text









реклама партнёра


Вернуться к началу
 Профиль Отправить личное сообщение  
 
   Похожие торренты   Автор   Торрент   Размер 
В этой теме нет новых непрочитанных сообщений. Девочки, ставшие мертвецами / Girls Gone Dead [ужасы, 2012] HDRip, Dvo

salma3

62 | 3

1.45 ГБ

В этой теме нет новых непрочитанных сообщений. Прогулка с мертвецами / Walking with the Dead (Скотт Дау) [комедия, 2015] HDRip, Mvo

Dracon

2461 | 145

1.47 ГБ

В этой теме нет новых непрочитанных сообщений. Слепые мертвецы 2: Возвращение слепых мертвецов / Blind Dead 2: Return of the Evil Dead [Ужасы, 1973] DVDRip, Avo

salma3

0 | 2

1.46 ГБ

В этой теме нет новых непрочитанных сообщений. Осажденные / L'assedio [драма, мелодрама, 1998] HDRip, Mvo

salma3

68 | 11

1.45 ГБ

В этой теме нет новых непрочитанных сообщений. Кричащие мертвецы / Screaming Dead [ужасы, триллер, 2003] DVDRip, Avo

salma3

112 | 9

1.27 ГБ

В этой теме нет новых непрочитанных сообщений. Зарождение Мертвецов / Dead Genesis [ужасы, триллер, драма, 2010] HDRip, Avo

salma3

5 | 3

1.45 ГБ

В этой теме нет новых непрочитанных сообщений. Мертвый космос / Dead Space [ужасы, фантастика, 1990] DVDRip, 3avo

salma3

37 | 3

1.46 ГБ


Начать новую тему Ответить на тему  [ 1 сообщение ] 




Для Мосгорсуда, Роскомнадзора и рекламодателей:: mosgorsud-torrent[собачка]yandex.ru