Торрент файл
скачать торрент магнет ссылка Добавлен: 25 май 2011, 03:08
Размер: 3.15 ГБ
Сидеров: 12
Личеров: 7
Автор

СообщениеДобавлено: 25 май 2011, 03:08 

Не в сети
Супермодератор
Аватара пользователя
Дата регистрации:
22 май 2010, 11:03
Возраст: 31
Спасибо: 7509 / 13
Сообщения: 49940
[b]Крестный отец 2 / The Godfather 2[/b]

Перевод: Профессиональный (многоголосый, закадровый)
cубтитры: отсутствуют
Формат: BDRip, MKV, H.264, AC3
Страна: США

Слоган: «The saga continues.»

Режиссер: Френсис Форд Коппола
Жанр: Боевик, триллер, драма, криминал
Продолжительность: 03:17:01
Год выпуска: 1974

В ролях: Роберт Де Ниро, Аль Пачино, Роберт Дюваль, Дайан Китон, Джон Казале, Талия Шайр, Ли Страсберг, Майкл В. Гаццо, Г.Д. Спрэдлин, Ричард Брайт

Описание: В центре драмы представители нового поколения гангстерского клана — дона Корлеоне и его сына, для которых не существует моральных преград на пути достижения поставленых целей. Они превращают мафию, построенную по патриархальным, еще сицилийским законам, в весьма прагматичную, жесткую корпорацию, плавно интегрирующуюся в большой бизнес Америки.

Рейтинг на КиноПоиск.RU: 8.457
Рейтинг на IMDB: 9.0/10
Рейтинг MPAA: R

Видео: 1280x720, (16:9), 23.976 fps, MPEG4 AVC (x264) High@L4.1, ~ 2000 kbps avg, 0.090 bit/pixel
Аудио: 48 kHz, AC3, 6 ch, 256 kbps

[b]
MediaInfo"]

Полное имя: \The_Godfather_2_(1974)_BDRip-AVC.mkv
Формат: Matroska
Размер файла: 3.15 GiB
Продолжительность: 3h 17mn
Общий поток: 2 290 Kbps
Дата кодирования: UTC 2010-11-02 17:54:10
Программа кодирования: mkvmerge v3.0.0 ('Hang up your Hang-Ups') built on Dec 12 2009 15:20:35
Библиотека кодирования: libebml v0.7.9 + libmatroska v0.8.1

Video
Идентификатор: 1
Формат: AVC
Формат/Информация: Advanced Video Codec
Профайл формата: High@L4.1
Параметры CABAC формата: Yes
Параметры ReFrames формата: 8 frames
Режим смешивания: Container profile=Unknown@4.1
Идентификатор кодека: V_MPEG4/ISO/AVC
Продолжительность: 3h 16mn
Битрейт: 1 989 Kbps
Номинальный битрейт: 2 000 Kbps
Ширина: 1 280 pixels
Высота: 720 pixels
Соотношение кадра: 16:9
Частота кадров: 23.976 fps
Разрешение: 8 bits
Колориметрия: 4:2:0
Тип развёртки: Progressive
Бит/(Пиксели*Кадры): 0.090
Размер потока: 2.73 GiB (87%)
Библиотека кодирования: x264 core 84 r1400kGIT 20fa784
Настройки программы: cabac=1 / ref=8 / deblock=1:-1:-1 / analyse=0x3:0x113 / me=umh / subme=9 / psy=1 / psy_rd=1.0:1.0 / mixed_ref=1 / me_range=16 / chroma_me=1 / trellis=2 / 8x8dct=1 / cqm=0 / deadzone=21,11 / fast_pskip=1 / chroma_qp_offset=-4 / threads=6 / sliced_threads=0 / slices=4 / nr=0 / decimate=1 / mbaff=0 / constrained_intra=0 / bframes=4 / b_pyramid=0 / b_adapt=2 / b_bias=0 / direct=1 / wpredb=1 / wpredp=2 / keyint=24 / keyint_min=2 / scenecut=40 / intra_refresh=0 / rc_lookahead=24 / rc=2pass / mbtree=1 / bitrate=2000 / ratetol=1.0 / qcomp=0.60 / qpmin=10 / qpmax=51 / qpstep=4 / cplxblur=20.0 / qblur=0.5 / vbv_maxrate=40000 / vbv_bufsize=30000 / ip_ratio=1.40 / aq=1:1.00 / pulldown=0 / nal_hrd=1

Audio
Идентификатор: 2
Формат: AC-3
Формат/Информация: Audio Coding 3
Идентификатор кодека: A_AC3
Продолжительность: 3h 17mn
Вид битрейта: Constant
Битрейт: 256 Kbps
Канал(ы): 6 channels
Расположение каналов: Front: L C R, Surround: L R, LFE
Частота: 48.0 KHz
Размер потока: 361 MiB (11%)



[b]
Показать скриншоты"]














реклама партнёра


Вернуться к началу
 Профиль Отправить личное сообщение  
 
   Похожие торренты   Автор   Торрент   Размер 
В этой теме нет новых непрочитанных сообщений. Крестный отец 1,2,3 / The Godfather: Part I, II, III [Боевик, триллер, драма, криминал, 1972, 1974, 1990] BDRip, Dub+Sub [Нева Фильм]

salma3

23 | 7

6.56 ГБ

В этой теме нет новых непрочитанных сообщений. Godfather: A DreamZone Parody / Крёстный Отец Пародия (Lee Roy Meyers / Dreamzone Production) (Kagney Linn Karter, Jessie Andrews, Veruca James) [2012 г., Feature, Plot Based, Parody / Spoof, DVDRip 480p]SPLIT SCENES

friizze

1 | 3

1.04 ГБ

В этой теме нет новых непрочитанных сообщений. Крестный отец Гонконга / Jian dong xiao xiong [Боевик, 1985] DVDRip-AVC, Avo

salma3

67 | 3

2.13 ГБ

В этой теме нет новых непрочитанных сообщений. Кровный отец / Blood Father [боевик, триллер, криминал, 2016] BDRip, mvo

marya111

331 | 116

1.46 ГБ

В этой теме нет новых непрочитанных сообщений. Ночь покера / Poker Night (Грег Френсис) [боевик, триллер, криминал, 2014] BDRip 1080p, Mvo

Dracon

32 | 2

7.79 ГБ

В этой теме нет новых непрочитанных сообщений. Ночь покера / Poker Night (Грег Френсис) [боевик, триллер, криминал, 2014] BDRip 720p, Mvo

Dracon

91 | 2

5.6 ГБ

В этой теме нет новых непрочитанных сообщений. Выкуп / The Terrorists [триллер, драма, криминал, 1974] BDRip, Mvo

salma3

4 | 3

1.45 ГБ


Начать новую тему Ответить на тему  [ 1 сообщение ] 




Для Мосгорсуда, Роскомнадзора и рекламодателей:: mosgorsud-torrent[собачка]yandex.ru