Торрент файл
скачать торрент магнет ссылка Добавлен: 14 авг 2021, 15:52
Размер: 2.9 ГБ
Сидеров: 1
Личеров: 0
Автор

СообщениеДобавлено: 14 авг 2021, 15:52 

Не в сети
Дата регистрации:
25 июл 2019, 06:17
Спасибо: 55 / 2
Сообщения: 2969
Название: Зверинец
Оригинальное название: Animal House
Год выхода: 1978
Жанр: Комедия
Режиссер: Джон Лэндис
В ролях: Джон Белуши, Верна Блум, Джон Вернон, Отис Дэй, Брюс МакГилл, Марк Меткаф, Тим Мэтисон, Питер Ригерт, Мэри Луиза Уэллер, Стивен Фёрст, Том Халс, Джеймс Дотон, Карен Аллен, Джеймс Уиддоуз, Марта Смит, Кевин Бэйкон, Дуглас Кенни, Джошуа Дэниэл, Санни Джонсон, Элиза Робертс, Реджинальд Фармер, Сара Холкомб, Хелен Вик, Чезаре Данова, Дональд Сазерленд

Описание: Ребята одного из колледжей разделились на два братства. В одно из них входят шумные, веселые, дружные студенты, доставляющие много хлопот преподавателям. Другое состоит из заносчивых и высокомерных детей состоятельных семейств, настоящих снобов...



Выпущено: США, Universal Pictures, Oregon Film Factory, Stage III Productions
Продолжительность: 01:48:46
Перевод: Профессиональный многоголосый + Авторский

Качество: BDRip-AVC
Видео: H.264, 1024x556, 23.976fps, 3043 Kb/s
Аудио: 48KHz, AC3, 2ch, 192 Kb/s | Rus | Многоголосый
Аудио: 48KHz, AC3, 2ch, 192 Kb/s | Rus | A.Михалев
Аудио: 48KHz, AC3, 6ch, 384 Kb/s | Eng
Субтитры: Русские, английские

Format : Matroska
Format version : Version 4
File size : 2.90 GiB
Duration : 1 h 48 min
Overall bit rate : 3 814 kb/s
Movie name : Animal House 1978
Encoded date : UTC 2021-08-14 07:49:20
Writing application : mkvmerge v35.0.0 ('All The Love In The World') 64-bit
Writing library : libebml v1.3.9 + libmatroska v1.5.2
Cover : Yes
Attachments : cover.jpg

Video
ID : 1
Format : AVC
Format/Info : Advanced Video Codec
Format profile : High@L4.1
Format settings : CABAC / 11 Ref Frames
Format settings, CABAC : Yes
Format settings, Reference fra : 11 frames
Codec ID : V_MPEG4/ISO/AVC
Duration : 1 h 48 min
Bit rate : 3 043 kb/s
Width : 1 024 pixels
Height : 556 pixels
Display aspect ratio : 1.85:1
Frame rate mode : Constant
Frame rate : 23.976 (24000/1001) FPS
Color space : YUV
Chroma subsampling : 4:2:0
Bit depth : 8 bits
Scan type : Progressive
Bits/(Pixel*Frame) : 0.223
Stream size : 2.31 GiB (80%)
Title : KNG
Writing library : x264 core 157 r2969 d4099dd
Encoding settings : cabac=1 / ref=11 / deblock=1:-3:-3 / analyse=0x3:0x133 / me=umh / subme=10 / psy=1 / psy_rd=1.00:0.10 / mixed_ref=1 / me_range=32 / chroma_me=1 / trellis=2 / 8x8dct=1 / cqm=0 / deadzone=21,11 / fast_pskip=0 / chroma_qp_offset=-3 / threads=3 / lookahead_threads=1 / sliced_threads=0 / nr=0 / decimate=1 / interlaced=0 / bluray_compat=0 / constrained_intra=0 / bframes=14 / b_pyramid=2 / b_adapt=2 / b_bias=0 / direct=3 / weightb=1 / open_gop=0 / weightp=2 / keyint=240 / keyint_min=23 / scenecut=40 / intra_refresh=0 / rc_lookahead=40 / rc=2pass / mbtree=1 / bitrate=3043 / ratetol=1.0 / qcomp=0.60 / qpmin=10 / qpmax=51 / qpstep=4 / cplxblur=20.0 / qblur=0.5 / vbv_maxrate=50000 / vbv_bufsize=62500 / nal_hrd=none / filler=0 / ip_ratio=1.40 / aq=1:1.00
Language : English
Default : Yes
Forced : No
Color range : Limited
Color primaries : BT.709
Transfer characteristics : BT.709
Matrix coefficients : BT.709

Audio #1
ID : 2
Format : AC-3
Format/Info : Audio Coding 3
Commercial name : Dolby Digital
Codec ID : A_AC3
Duration : 1 h 48 min
Bit rate mode : Constant
Bit rate : 192 kb/s
Channel(s) : 2 channels
Channel layout : L R
Sampling rate : 48.0 kHz
Frame rate : 31.250 FPS (1536 SPF)
Compression mode : Lossy
Stream size : 149 MiB (5%)
Title : MVO
Language : Russian
Service kind : Complete Main
Default : Yes
Forced : No

Audio #2
ID : 3
Format : AC-3
Format/Info : Audio Coding 3
Commercial name : Dolby Digital
Codec ID : A_AC3
Duration : 1 h 48 min
Bit rate mode : Constant
Bit rate : 192 kb/s
Channel(s) : 2 channels
Channel layout : L R
Sampling rate : 48.0 kHz
Frame rate : 31.250 FPS (1536 SPF)
Compression mode : Lossy
Stream size : 149 MiB (5%)
Title : AVO - Михалев
Language : Russian
Service kind : Complete Main
Default : No
Forced : No

Audio #3
ID : 4
Format : AC-3
Format/Info : Audio Coding 3
Commercial name : Dolby Digital
Codec ID : A_AC3
Duration : 1 h 48 min
Bit rate mode : Constant
Bit rate : 384 kb/s
Channel(s) : 6 channels
Channel layout : L R C LFE Ls Rs
Sampling rate : 48.0 kHz
Frame rate : 31.250 FPS (1536 SPF)
Compression mode : Lossy
Stream size : 299 MiB (10%)
Title : Original
Language : English
Service kind : Complete Main
Default : No
Forced : No

Text #1
ID : 5
Format : UTF-8
Codec ID : S_TEXT/UTF8
Codec ID/Info : UTF-8 Plain Text
Duration : 1 h 47 min
Bit rate : 73 b/s
Count of elements : 1010
Stream size : 58.4 KiB (0%)
Title : fenixclub
Language : Russian
Default : No
Forced : No

Text #2
ID : 6
Format : UTF-8
Codec ID : S_TEXT/UTF8
Codec ID/Info : UTF-8 Plain Text
Duration : 1 h 43 min
Bit rate : 49 b/s
Count of elements : 1184
Stream size : 37.7 KiB (0%)
Title : SDH
Language : English
Default : No
Forced : No







Вернуться к началу
 Профиль Отправить личное сообщение  
 
   Похожие торренты   Автор   Торрент   Размер 
В этой теме нет новых непрочитанных сообщений. Ограбление Бринкса / The Brink's Job [Комедия, криминал, 1978] BDRip 1080p, Mvo

salma3

0 | 0

9.93 ГБ

В этой теме нет новых непрочитанных сообщений. Чудовище / L'animal [боевик, мелодрама, комедия, 1977] BDRip 720p, Dub

salma3

0 | 0

3.31 ГБ

В этой теме нет новых непрочитанных сообщений. Хэллоуин / Halloween [Ужасы, триллер, 1978] BDRip-HEVC 1080p, Mvo

salma3

0 | 0

5.88 ГБ

В этой теме нет новых непрочитанных сообщений. Супермен / Superman [Фантастика, фэнтези, боевик, 1978] BDRip 1080p, Mvo

salma3

0 | 0

15.35 ГБ

В этой теме нет новых непрочитанных сообщений. Склока / La Zizanie [комедия, 1978] BDRemux 1080p, Mvo

salma3

0 | 0

20.49 ГБ

В этой теме нет новых непрочитанных сообщений. Animal Planet: Океанариум / The Aquarium [01-07 из 07] (2019) HDTVRip-AVC | P2

salma3

0 | 0

6.88 ГБ

В этой теме нет новых непрочитанных сообщений. Animal Planet: Океанариум / The Aquarium [01-03 из 07] (2019) HDTVRip-AVC | P2

salma3

0 | 0

2.95 ГБ


Начать новую тему Ответить на тему  [ 1 сообщение ] 




Для Мосгорсуда, Роскомнадзора и рекламодателей:: rstracker[собака]yandex.ru
cron