Торрент файл
скачать торрент магнет ссылка Добавлен: 28 апр 2021, 10:37
Размер: 1.91 ГБ
Сидеров: 3
Личеров: 1
Статус: (salma3)
Автор

СообщениеДобавлено: 28 апр 2021, 10:37 

Не в сети
Супермодератор
Аватара пользователя
Дата регистрации:
15 фев 2012, 16:44
Возраст: 33
Спасибо: 8325 / 2148
Сообщения: 97229
Год выхода: 2008
Жанр: ужасы, триллер, детектив
Режиссер: Эрик Ред

В ролях: Фамке Янссен, Бобби Каннавале, Эд Вествик, Майкл Паре, Патриша Шарбонно, Джон Фэллон, Кевин Гир, Тибор Палффи, Кембе Сорел, Эвелин Кандеч

О фильме:
Марни Уотсон освобождают из тюрьмы, где она отбывала наказание за убийство мужа. Теперь женщина сидит под домашним арестом с электронным устройством на ноге, которое не позволяет ей покинуть 100-футовый радиус. Тем временем в доме появляется призрак убиенного супруга, жаждущий мести.



Страна: США
Продолжительность: 01:36:26
Перевод: Профессиональный (многоголосый закадровый)

Файл
Формат: MKV
Качество: HDRip-AVC
Видео: AVC/H.264, 1024х576, 23.976 fps, ~2000 Kbps
Аудио #1: AC3, 6 ch, 384 Kbps - Русский (MVO R5)
Аудио #2: AC3, 6 ch, 448 Kbps - Английский
Субтитры: русские, английские

x264 [info]: frame I:921 Avg QP:14.86 size: 71009
x264 [info]: frame P:34211 Avg QP:17.98 size: 20399
x264 [info]: frame B:103612 Avg QP:20.18 size: 6562
x264 [info]: consecutive B-frames: 2.8% 4.9% 10.9% 26.1% 30.8% 17.1% 3.5% 1.1% 0.7% 0.7% 0.2% 0.1% 1.0%

General
Unique ID : 201619777413250770461301646955305658548 (0x97AE8E81EE49DDADA0957C0690E668B4)
Complete name : D:100 Feet (2008) Open Matte HDRip.mkv
Format : Matroska
Format version : Version 4
File size : 1.91 GiB
Duration : 1 h 36 min
Overall bit rate : 2 829 kb/s
Movie name : 100 футов / 100 Feet (2008) (Open Matte) - #LORDKILL#
Encoded date : UTC 2021-04-27 15:38:53
Writing application : mkvmerge v8.3.0 ('Over the Horizon') 32bit
Writing library : libebml v1.3.1 + libmatroska v1.4.2

Video
ID : 1
Format : AVC
Format/Info : Advanced Video Codec
Format profile : High@L4.1
Format settings : CABAC / 11 Ref Frames
Format settings, CABAC : Yes
Format settings, Reference : 11 frames
Codec ID : V_MPEG4/ISO/AVC
Duration : 1 h 36 min
Bit rate : 2 000 kb/s
Width : 1 024 pixels
Height : 576 pixels
Display aspect ratio : 16:9
Frame rate mode : Constant
Frame rate : 23.976 (24000/1001) FPS
Color space : YUV
Chroma subsampling : 4:2:0
Bit depth : 8 bits
Scan type : Progressive
Bits/(Pixel*Frame) : 0.141
Stream size : 1.34 GiB (71%)
Writing library : x264 core 159 r2991 1771b55
Encoding settings : cabac=1 / ref=11 / deblock=1:-3:-3 / analyse=0x3:0x113 / me=umh / subme=10 / psy=1 / psy_rd=1.00:0.20 / mixed_ref=1 / me_range=32 / chroma_me=1 / trellis=2 / 8x8dct=1 / cqm=0 / deadzone=21,11 / fast_pskip=0 / chroma_qp_offset=-3 / threads=18 / lookahead_threads=4 / sliced_threads=0 / nr=0 / decimate=1 / interlaced=0 / bluray_compat=0 / constrained_intra=0 / bframes=12 / b_pyramid=2 / b_adapt=2 / b_bias=0 / direct=3 / weightb=1 / open_gop=0 / weightp=2 / keyint=240 / keyint_min=23 / scenecut=40 / intra_refresh=0 / rc=2pass / mbtree=0 / bitrate=2000 / ratetol=1.0 / qcomp=0.60 / qpmin=0 / qpmax=69 / qpstep=4 / cplxblur=20.0 / qblur=0.5 / ip_ratio=1.40 / pb_ratio=1.30 / aq=1:1.00
Default : Yes
Forced : No

Audio #1
ID : 2
Format : AC-3
Format/Info : Audio Coding 3
Commercial name : Dolby Digital
Codec ID : A_AC3
Duration : 1 h 36 min
Bit rate mode : Constant
Bit rate : 384 kb/s
Channel(s) : 6 channels
Channel layout : L R C LFE Ls Rs
Sampling rate : 48.0 kHz
Frame rate : 31.250 FPS (1536 SPF)
Compression mode : Lossy
Stream size : 265 MiB (14%)
Title : MVO
Language : Russian
Service kind : Complete Main
Default : Yes
Forced : No

Audio #2
ID : 3
Format : AC-3
Format/Info : Audio Coding 3
Commercial name : Dolby Digital
Codec ID : A_AC3
Duration : 1 h 36 min
Bit rate mode : Constant
Bit rate : 448 kb/s
Channel(s) : 6 channels
Channel layout : L R C LFE Ls Rs
Sampling rate : 48.0 kHz
Frame rate : 31.250 FPS (1536 SPF)
Compression mode : Lossy
Stream size : 309 MiB (16%)
Language : English
Service kind : Complete Main
Default : No
Forced : No

Text #1
ID : 4
Format : UTF-8
Codec ID : S_TEXT/UTF8
Codec ID/Info : UTF-8 Plain Text
Duration : 1 h 29 min
Bit rate : 41 b/s
Count of elements : 591
Stream size : 27.3 KiB (0%)
Language : Russian
Default : No
Forced : No

Text #2
ID : 5
Format : UTF-8
Codec ID : S_TEXT/UTF8
Codec ID/Info : UTF-8 Plain Text
Duration : 1 h 29 min
Bit rate : 29 b/s
Count of elements : 592
Stream size : 19.4 KiB (0%)
Language : English
Default : No
Forced : No
Open Matte-версия фильма имеет другое наполнение кадра.





_________________
Проголосуй за трекер Открытый торрент трекер - RUS-MEDIA.ORG

Проголосуй Открытый торрент трекер - RUS-MEDIA.ORG


Вернуться к началу
 Профиль Отправить личное сообщение  
 
   Похожие торренты   Автор   Торрент   Размер 
В этой теме нет новых непрочитанных сообщений. 100 футов / 100 Feet [Ужасы, триллер, детектив, 2008] BDRemux 1080p, Mvo

salma3

1 | 1

20.53 ГБ

В этой теме нет новых непрочитанных сообщений. 100 футов / 100 Feet [Ужасы, триллер, детектив, 2008] BDRemux 1080p, Mvo

salma3

0 | 0

20.53 ГБ

В этой теме нет новых непрочитанных сообщений. Останься / Stay [триллер, драма, детектив, 2005] WEB-DLRip-AVC, Mvo [Open Matte]

salma3

0 | 0

2.18 ГБ

В этой теме нет новых непрочитанных сообщений. Уиллард / Willard [Ужасы, фантастика, триллер, 2003] WEB-DLRip-AVC, Mvo [Open Matte]

salma3

0 | 0

1.8 ГБ

В этой теме нет новых непрочитанных сообщений. Темный город / Dark City [фантастика, триллер, детектив, 1998] WEBRip-AVC, Mvo [Open Matte] [Theatrical Cut]

salma3

14 | 1

2.18 ГБ

В этой теме нет новых непрочитанных сообщений. Темный город / Dark City [фантастика, триллер, детектив, 1998] WEBRip-AVC, Mvo [Open Matte] [Theatrical Cut]

salma3

0 | 0

1.67 ГБ

В этой теме нет новых непрочитанных сообщений. Сигнал / The Signal [фантастика, триллер, 2014] WEB-DLRip-AVC, Mvo [Open Matte]

salma3

1 | 1

746.12 МБ


Начать новую тему Ответить на тему  [ 1 сообщение ] 




Для Мосгорсуда, Роскомнадзора и рекламодателей:: rstracker[собака]yandex.ru
cron