Торрент файл
скачать торрент магнет ссылка Добавлен: 14 сен 2020, 23:26
Размер: 1.37 ГБ
Сидеров: 275
Личеров: 22
Статус: (salma3)
Автор

СообщениеДобавлено: 14 сен 2020, 23:26 

Не в сети
Супермодератор
Аватара пользователя
Дата регистрации:
15 фев 2012, 16:44
Возраст: 32
Спасибо: 8320 / 2148
Сообщения: 97229
Год выхода: 2020
Жанр: Боевик, криминал
Режиссер: Таффи Эдвардс

В ролях: Рон Смуренбург, Байрон Гибсон, Оуэн О'Брайен, Дэмиэн Мевис, Дин Александру, Александр Уинтерс, Марк Стас, Дэвид Блазейко, Ли Барвелл, Ли Мэйсон

О фильме: Некий солдат и кикбоксёр из криминального мира объединяют свои усилия, чтобы стать крупнейшими нелегальными поставщиками стероидов в Азии, неся хаос и разрушение на улицы Таиланда.



Страна: Великобритания
Продолжительность: 01:25:09
Перевод: Любительский многоголосый | @MUZOBOZ@

Файл
Кодек: XviD
Качество: WEB-DLRip
Видео: 2106 Кбит/с, 720x304, 23.976 кадр/с
Звук: AC3, 48 Гц, 192 Кбит/сек, 2 ch (L + R) | MVO | @MUZOBOZ@



Общее
Полное имя : D:ТоррентыEnglish.Dogs.2020.1080p.AMZN.WEBRip.DDP2.0.x264-CMAngliyskie.Psi.2020.XviD.WEB-DLRip-MediaBit.avi
Формат : AVI
Формат/Информация : Audio Video Interleave
Профиль формата : OpenDML
Размер файла : 1,37 Гбайт
Продолжительность : 1 ч. 25 м.
Общий поток : 2 310 Кбит/сек
Название фильма : English Dogs / (2020)
Программа кодирования : Lavf58.20.100
Видео
Идентификатор : 0
Формат : MPEG-4 Visual
Профиль формата : Advanced Simple@L5
Настройки формата : BVOP1 / Custom Matrix
Параметр BVOP формата : 1
Параметр QPel формата : Нет
Параметр GMC формата : Без точки перехода
Параметр матрицы формата : Выборочная
Идентификатор кодека : XVID
Идентификатор кодека/Подсказка : XviD
Продолжительность : 1 ч. 25 м.
Битрейт : 2 106 Кбит/сек
Ширина : 720 пикселей
Высота : 304 пикселя
Соотношение сторон : 2,35:1
Частота кадров : 23,976 (24000/1001) кадра/сек
Цветовое пространство : YUV
Субдискретизация насыщенности : 4:2:0
Битовая глубина : 8 бит
Тип развёртки : Прогрессивная
Метод сжатия : С потерями
Бит/(Пиксели*Кадры) : 0.401
Размер потока : 1,25 Гбайт (91%)
Заголовок : MediaBit
Библиотека кодирования : XviD 67
Аудио
Идентификатор : 1
Формат : AC-3
Формат/Информация : Audio Coding 3
Коммерческое название : Dolby Digital
Идентификатор кодека : 2000
Продолжительность : 1 ч. 25 м.
Вид битрейта : Постоянный
Битрейт : 192 Кбит/сек
Каналы : 2 канала
Channel layout : L R
Частота : 48,0 КГц
Частота кадров : 31,250 кадров/сек (1536 SPF)
Битовая глубина : 16 бит
Метод сжатия : С потерями
Размер потока : 117 Мбайт (8%)
Выравнивание : Соединение по промежуткам
Продолжительность промежутка : 32 мс. (0,77 видеокадр)
Заголовок : MVO [@MUZOBOZ@] MediaBit
Service kind : Complete Main


Релиз от:


_________________
Проголосуй за трекер Открытый торрент трекер - RUS-MEDIA.ORG

Проголосуй Открытый торрент трекер - RUS-MEDIA.ORG


Вернуться к началу
 Профиль Отправить личное сообщение  
 
   Похожие торренты   Автор   Торрент   Размер 
В этой теме нет новых непрочитанных сообщений. Псы резервации / Reservation Dogs (Сезон 1 , Серия 1-8 из 8 ) (Стерлин Харьо) [2021, Комедия, криминал,WEB-DL- HEVC 10bit - 1080p] [LostFilm+TVShows +Eng]+[Subs Rus , ENG]

Враг Нароода

0 | 0

5.84 ГБ

В этой теме нет новых непрочитанных сообщений. Соломенные псы / Straw Dogs [Триллер, драма, криминал, 2011] BDRip 720p, Dub

salma3

0 | 0

4.56 ГБ

В этой теме нет новых непрочитанных сообщений. Соломенные псы / Straw Dogs [триллер, драма, криминал, 2011] BDRemux 1080p, Dub [Лицензия]

salma3

0 | 0

21.28 ГБ

В этой теме нет новых непрочитанных сообщений. Хищные птицы: Потрясающая история Харли Квинн / Birds of Prey: And the Fantabulous Emancipation of One Harley Quinn [Боевик, криминал, комедия, 2020] WEB-DLRip, Mvo

salma3

0 | 0

1.47 ГБ

В этой теме нет новых непрочитанных сообщений. Амнезия / Last Three Days [Боевик, триллер, криминал, 2020] WEB-DLRip, Dub [iTunes]

salma3

4 | 0

1.37 ГБ

В этой теме нет новых непрочитанных сообщений. Коллекторы 2 / The Debt Collector 2 [боевик, криминал, комедия, 2020] WEB-DLRip, Dub [iTunes]

salma3

0 | 0

1.46 ГБ

В этой теме нет новых непрочитанных сообщений. Преступить черту / No matarás [Боевик, триллер, криминал, 2020] WEB-DLRip, Dub [iTunes]

salma3

39 | 23

1.46 ГБ


Начать новую тему Ответить на тему  [ 1 сообщение ] 




Для Мосгорсуда, Роскомнадзора и рекламодателей:: rstracker[собака]yandex.ru
cron