Торрент файл
скачать торрент магнет ссылка Добавлен: 20 июл 2020, 10:13
Размер: 2.43 ГБ
Сидеров: 3
Личеров: 0
Статус: (salma3)
Автор

СообщениеДобавлено: 20 июл 2020, 10:13 

Не в сети
Супермодератор
Аватара пользователя
Дата регистрации:
15 фев 2012, 16:44
Возраст: 32
Спасибо: 8321 / 2148
Сообщения: 97229
Год выпуска: 1967
Жанр: Мелодрама, вестерн
Режиссёр: Том Гриз

В ролях: Чарлтон Хестон, Джоан Хэккетт, Дональд Плезенс, Ли Мэйджорс, Брюс Дерн, Бен Джонсон, Слим Пикенс, Клифтон Джеймс, Энтони Зербе, Рой Дженсон, Квентин Дин, Уильям Шэллерт, Лидия Кларк, Джон Грайз

О фильме:
Снятый в конце 60-х "Уилл Пенни" стал, быть может, первым вестерном, который не ностальгировал по прошлому, оплакивал будущее или издевался над настоящим. В фильме нет ни малейших признаков мифотворчества и это замечательно. Режиссер картины Том Гриз не был ортодоксом жанра, его картина не поражает выверенностью ракурсов или затертыми пейзажами Долины монументов, он спокойно и размеренно рассказывает историю немолодого ковбоя-одиночки, переживающего опасные встречи и нечаянную любовь. И вдруг на заснеженных просторах Сьерра-Невады оживает дух поэтического реализма с его суровыми героями-мужчинами и женщинами, обреченными на короткие встречи. Актерский состав фильма исключительно удачен, несмотря на отсутствие громких имен. Главная удача картины - это прекрасная игра Ч. Хестона.



Выпущено: США, Paramount Pictures
Продолжительность: 01:49:43
Перевод: Профессиональный (многоголосый, закадровый)
Субтитры: Английские

Файл
Формат: Matroska
Качество: WEB-DLRip-AVC [AMZN]
Видео: 1024x576 (16x9) at 23.976 fps, x264@L4.1, ~2974 kbps, 0.210 bpp
Аудио: 48 kHz, AC3, 2.0 ch, 192 kbps - MVO, Paramount Channel
Формат субтитров: softsub (SRT)
***Релиз от: -=DoMiNo=-
x264 [info]: frame I:1092 Avg QP:18.75 size: 78178
x264 [info]: frame P:31111 Avg QP:19.63 size: 31515
x264 [info]: frame B:125623 Avg QP:21.67 size: 10994
x264 [info]: consecutive B-frames: 1.0% 1.1% 3.4% 21.4% 16.1% 46.6% 6.1% 2.2% 1.3% 0.4% 0.2% 0.2%
General
Format : Matroska
Format version : Version 4
File size : 2.43 GiB
Duration : 1 h 49 min
Overall bit rate : 3 168 kb/s
Movie name : Уилл Пэнни.(1967).WEB-DLRip-AVC.[-=DoMiNo=-]
Encoded date : UTC 2020-07-16 16:49:31
Writing application : mkvmerge v48.0.0 ('Fortress Around Your Heart') 64-bit
Writing library : libebml v1.4.0 + libmatroska v1.6.0
Cover : Yes
Attachments : Cover.jpg / Cover 2.jpg
Video
ID : 1
Format : AVC
Format/Info : Advanced Video Codec
Format profile : High@L4.1
Format settings : CABAC / 13 Ref Frames
Format settings, CABAC : Yes
Format settings, Reference : 13 frames
Codec ID : V_MPEG4/ISO/AVC
Duration : 1 h 49 min
Bit rate : 2 974 kb/s
Width : 1 024 pixels
Height : 576 pixels
Display aspect ratio : 16:9
Frame rate mode : Constant
Frame rate : 23.976 (24000/1001) FPS
Color space : YUV
Chroma subsampling : 4:2:0
Bit depth : 8 bits
Scan type : Progressive
Bits/(Pixel*Frame) : 0.210
Stream size : 2.28 GiB (94%)
Title : -=DoMiNo=-
Writing library : x264 core 161 r3018 db0d417
Encoding settings : cabac=1 / ref=13 / deblock=1:-3:-3 / analyse=0x3:0x133 / me=umh / subme=10 / psy=1 / psy_rd=1.00:0.20 / mixed_ref=1 / me_range=32 / chroma_me=1 / trellis=2 / 8x8dct=1 / cqm=0 / deadzone=21,11 / fast_pskip=0 / chroma_qp_offset=-3 / threads=6 / lookahead_threads=1 / sliced_threads=0 / nr=0 / decimate=1 / interlaced=0 / bluray_compat=0 / constrained_intra=0 / bframes=11 / b_pyramid=2 / b_adapt=2 / b_bias=0 / direct=1 / weightb=1 / open_gop=0 / weightp=2 / keyint=250 / keyint_min=23 / scenecut=40 / intra_refresh=0 / rc_lookahead=60 / rc=crf / mbtree=0 / crf=19.0 / qcomp=0.65 / qpmin=0 / qpmax=69 / qpstep=4 / vbv_maxrate=50000 / vbv_bufsize=62500 / crf_max=0.0 / nal_hrd=none / filler=0 / ip_ratio=1.40 / pb_ratio=1.30 / aq=1:1.00
Language : English
Default : Yes
Forced : No
Color range : Limited
Color primaries : BT.709
Transfer characteristics : BT.709
Matrix coefficients : BT.709
Audio
ID : 2
Format : AC-3
Format/Info : Audio Coding 3
Commercial name : Dolby Digital
Codec ID : A_AC3
Duration : 1 h 49 min
Bit rate mode : Constant
Bit rate : 192 kb/s
Channel(s) : 2 channels
Channel layout : L R
Sampling rate : 48.0 kHz
Frame rate : 31.250 FPS (1536 SPF)
Compression mode : Lossy
Stream size : 151 MiB (6%)
Title : MVO, Paramount Channel
Language : Russian
Service kind : Complete Main
Default : Yes
Forced : No
Text
ID : 3
Format : UTF-8
Codec ID : S_TEXT/UTF8
Codec ID/Info : UTF-8 Plain Text
Duration : 1 h 49 min
Bit rate : 45 b/s
Count of elements : 1544
Stream size : 36.4 KiB (0%)
Language : English
Default : No
Forced : No
Menu
00:00:00.000 : :Глава 01
00:05:00.000 : :Глава 02
00:10:00.000 : :Глава 03
00:15:00.000 : :Глава 04
00:20:00.000 : :Глава 05
00:25:00.000 : :Глава 06
00:30:00.000 : :Глава 07
00:35:00.000 : :Глава 08
00:40:00.000 : :Глава 09
00:45:00.000 : :Глава 10
00:50:00.000 : :Глава 11
00:55:00.000 : :Глава 12
01:00:00.000 : :Глава 13
01:05:00.000 : :Глава 14
01:10:00.000 : :Глава 15
01:15:00.000 : :Глава 16
01:20:00.000 : :Глава 17
01:25:00.000 : :Глава 18
01:30:00.000 : :Глава 19
01:35:00.000 : :Глава 20
01:40:00.000 : :Глава 21
01:45:00.000 : :Глава 22


_________________
Проголосуй за трекер Открытый торрент трекер - RUS-MEDIA.ORG

Проголосуй Открытый торрент трекер - RUS-MEDIA.ORG


Вернуться к началу
 Профиль Отправить личное сообщение  
 
   Похожие торренты   Автор   Торрент   Размер 
В этой теме нет новых непрочитанных сообщений. Мужские слезы / Cry Macho [Триллер, драма, вестерн, 2021] WEB-DLRip-AVC, Mvo [Jaskier[

salma3

0 | 0

1.86 ГБ

В этой теме нет новых непрочитанных сообщений. Чероки / The Cherokee Kid [Комедия, вестерн, 1996] WEB-DLRip-AVC, Avo

salma3

0 | 0

2.18 ГБ

В этой теме нет новых непрочитанных сообщений. Обитель страха / The Wind [Ужасы, вестерн, 2018] WEB-DLRip-AVC, Dub [iTunes]

salma3

0 | 0

1.48 ГБ

В этой теме нет новых непрочитанных сообщений. Аладдин / Aladdin [Мюзикл, фэнтези, мелодрама, 2019] WEB-DLRip-AVC, Mvo

salma3

0 | 2

2.45 ГБ

В этой теме нет новых непрочитанных сообщений. Карманные деньги / Milk Money [мелодрама, комедия, 1994] WEB-DLRip-AVC, Mvo

salma3

0 | 0

1.45 ГБ

В этой теме нет новых непрочитанных сообщений. Сладкий ноябрь / Sweet November [Драма, мелодрама, 2001] WEB-DLRip-AVC, Mvo

salma3

0 | 0

795.52 МБ

В этой теме нет новых непрочитанных сообщений. Пробуждая мертвецов / Waking the Dead [триллер, драма, мелодрама, 2000] WEB-DLRip-AVC, Mvo

salma3

0 | 0

1.36 ГБ


Начать новую тему Ответить на тему  [ 1 сообщение ] 




Для Мосгорсуда, Роскомнадзора и рекламодателей:: rstracker[собака]yandex.ru
cron