Торрент файл
скачать торрент магнет ссылка Добавлен: 16 июл 2020, 01:01
Размер: 745.18 МБ
Сидеров: 6
Личеров: 0
Статус: (salma3)
Автор

СообщениеДобавлено: 16 июл 2020, 01:01 

Не в сети
Супермодератор
Аватара пользователя
Дата регистрации:
15 фев 2012, 16:44
Возраст: 32
Спасибо: 8321 / 2148
Сообщения: 97229
Год выхода: 2004
Жанр: триллер, мелодрама
Режиссер: М. Найт Шьямалан

В ролях: Брайс Даллас Ховард, Хоакин Феникс, Эдриан Броуди, Уильям Хёрт, Сигурни Уивер, Брендан Глисон, Черри Джонс, Селия Уэстон, Джон Кристофер Джонс, Фрэнк Коллисон

О фильме:
Деревушка Ковингтон почти ничем не отличается от любой другой. За одним исключением: она со всех сторон окружена дикими лесами, в которых обитают монстры. Между людьми и жуткими плотоядными тварями царит хрупкое перемирие. Но только пока жители деревни не нарушают его главное условие - никогда не заходить в чащу.



Страна: США
Продолжительность: 01:47:47
Перевод: Профессиональный (дублированный)
Субтитры: Russian, English

Файл
Формат: Matroska
Качество: WEB-DLRip-AVC
Видео: 720x390 at 23.976 fps, x264@L4.1, ~902 kbps, 0.134 bpp
Аудио: AAC, 2 ch, ~64 kbps - | Русский | -
Формат субтитров: softsub (SRT)
***Релиз от: -=DoMiNo=-
x264 [info]: frame I:777 Avg QP:17.76 size: 36961
x264 [info]: frame P:34272 Avg QP:19.50 size: 11339
x264 [info]: frame B:120027 Avg QP:21.34 size: 2606
x264 [info]: consecutive B-frames: 1.7% 2.7% 6.6% 32.9% 15.3% 24.1% 6.4% 5.5% 2.2% 1.2% 0.5% 0.5% 0.5%
General
Format : Matroska
Format version : Version 4
File size : 745 MiB
Duration : 1 h 47 min
Overall bit rate : 966 kb/s
Movie name : Таинственный лес.(2004).WEB-DLRip-AVC.[-=DoMiNo=-]
Encoded date : UTC 2020-07-15 19:19:01
Writing application : mkvmerge v48.0.0 ('Fortress Around Your Heart') 64-bit
Writing library : libebml v1.4.0 + libmatroska v1.6.0
Cover : Yes
Attachments : Cover.jpg
Video
ID : 1
Format : AVC
Format/Info : Advanced Video Codec
Format profile : High@L4.1
Format settings : CABAC / 14 Ref Frames
Format settings, CABAC : Yes
Format settings, Reference : 14 frames
Codec ID : V_MPEG4/ISO/AVC
Duration : 1 h 47 min
Bit rate : 902 kb/s
Width : 720 pixels
Height : 390 pixels
Display aspect ratio : 1.85:1
Frame rate mode : Constant
Frame rate : 23.976 (24000/1001) FPS
Color space : YUV
Chroma subsampling : 4:2:0
Bit depth : 8 bits
Scan type : Progressive
Bits/(Pixel*Frame) : 0.134
Stream size : 695 MiB (93%)
Title : -=DoMiNo=-
Writing library : x264 core 161 r3018 db0d417
Encoding settings : cabac=1 / ref=14 / deblock=1:-3:-3 / analyse=0x3:0x133 / me=umh / subme=11 / psy=1 / psy_rd=1.00:0.15 / mixed_ref=1 / me_range=32 / chroma_me=1 / trellis=2 / 8x8dct=1 / cqm=0 / deadzone=21,11 / fast_pskip=0 / chroma_qp_offset=-3 / threads=6 / lookahead_threads=1 / sliced_threads=0 / nr=0 / decimate=0 / interlaced=0 / bluray_compat=0 / constrained_intra=0 / bframes=12 / b_pyramid=2 / b_adapt=2 / b_bias=0 / direct=3 / weightb=1 / open_gop=0 / weightp=2 / keyint=250 / keyint_min=23 / scenecut=40 / intra_refresh=0 / rc_lookahead=60 / rc=2pass / mbtree=0 / bitrate=902 / ratetol=1.0 / qcomp=0.65 / qpmin=0 / qpmax=69 / qpstep=4 / cplxblur=20.0 / qblur=0.5 / vbv_maxrate=50000 / vbv_bufsize=62500 / nal_hrd=none / filler=0 / ip_ratio=1.40 / pb_ratio=1.30 / aq=1:1.00
Language : English
Default : Yes
Forced : No
Color range : Limited
Color primaries : BT.709
Transfer characteristics : BT.709
Matrix coefficients : BT.709
Audio
ID : 2
Format : AAC LC SBR
Format/Info : Advanced Audio Codec Low Complexity with Spectral Band Replication
Commercial name : HE-AAC
Format settings : Explicit
Codec ID : A_AAC-2
Duration : 1 h 47 min
Bit rate : 62.7 kb/s
Channel(s) : 2 channels
Channel layout : L R
Sampling rate : 48.0 kHz
Frame rate : 23.438 FPS (2048 SPF)
Compression mode : Lossy
Stream size : 48.3 MiB (6%)
Title : DUB_[Невафильм]
Language : Russian
Default : Yes
Forced : No
Text #1
ID : 3
Format : UTF-8
Codec ID : S_TEXT/UTF8
Codec ID/Info : UTF-8 Plain Text
Duration : 1 h 40 min
Bit rate : 54 b/s
Count of elements : 694
Stream size : 40.4 KiB (0%)
Language : Russian
Default : No
Forced : No
Text #2
ID : 4
Format : UTF-8
Codec ID : S_TEXT/UTF8
Codec ID/Info : UTF-8 Plain Text
Duration : 1 h 39 min
Bit rate : 35 b/s
Count of elements : 750
Stream size : 25.7 KiB (0%)
Language : English
Default : No
Forced : No
Menu
00:00:00.000 : :Глава 01
00:05:30.000 : :Глава 02
00:11:00.000 : :Глава 03
00:16:30.000 : :Глава 04
00:22:00.000 : :Глава 05
00:27:30.000 : :Глава 06
00:33:00.000 : :Глава 07
00:38:30.000 : :Глава 08
00:44:00.000 : :Глава 09
00:49:30.000 : :Глава 10
00:55:00.000 : :Глава 11
01:00:30.000 : :Глава 12
01:06:00.000 : :Глава 13
01:11:30.000 : :Глава 14
01:17:00.000 : :Глава 15
01:22:30.000 : :Глава 16
01:28:00.000 : :Глава 17
01:33:30.000 : :Глава 18
01:39:00.000 : :Глава 19
01:44:30.000 : :Глава 20
В качестве замены Кирстен Данст в актерском составе появилась Брайс Даллас Ховард. Кирстен же предпочла поработать над картиной «Элизабеттаун» (Elizabethtown).
Из-за разногласий в расписании съемок актер Эштон Кутчер уступил свою роль Эдриану Броуди.
По признанию актрисы Сигурни Уивер эта картина станет одной из самых страшных в истории кинематографа. После прочтения сценария актрису в течение двух недель мучили жуткие кошмары.
Сценарий фильма был написан под влиянием двух абсолютно непохожих друг на друга сюжетов: театральная пьеса Wuthering Heights и оригинальный «Кинг Конг» 1933 года выпуска. Единственное, что объединяет эти два сюжета, — группы людей, живущие по соседству с агрессивными существами.
Актриса Брайс Даллас Ховард была утверждена без традиционных в таких случаях кинопроб. М. Найт Шьямалан остался доволен увиденным на театральных подмостках и незамедлительно пригласил актрису в свой проект.
Изначально картина носила рабочее название «Леса» (The Woods), однако, как выяснилось чуть позднее, другая студия уже застолбила право использовать данное название для своего проекта.
Роль Люциуса Ханта изначально писалась под Хоакина Феникса, с которым у Шьямалана установились теплые дружеские отношения еще со съемок «Знаков».
Несмотря на то, что в многочисленных зрительских отзывах не упоминается точное время событий (в основном упоминается лишь 19-ый век), в самом начале картины на одном из надгробных камней мы можем увидеть цифру 1897.
Съемки продолжались около двух месяцев, а общий бюджет фильма составил 60 миллионов долларов.
Режиссер фильма М. Найт Шьямалан, как и в прошлых своих фильмах, появится на экране на несколько секунд в небольшом камео, в конце фильма.
Чтобы лучше понять своих персонажей, все актёры фильма неделю жили в учебном лагере в атмосфере 19 века.
Первоначально комиссия по рейтингам хотела присвоить фильму рейтинг «R». Причиной служил один-единственный звуковой эффект. Однако этого не произошло в связи с тем, что эффект так и не был использован в фильме.
В финале в титрах появляется надпись: «Те, чьё имя не называем — Джой Ания и Кевин Фостер» (Those We Don`t Speak Of — Joey Anaya and Kevin Foster).
Режиссер первоначально решил сделать дизайн «Тех, чьё имя не называем», в виде монстра, похожего на прямоходящего льва с большой косматой головой, но после просмотра созданного образа, решил, что это совершенно невероятно и не согласуется с концепцией картины.
Деревню Ковингтон в лесной долине для съемок фильма команда рабочих «с нуля» полностью выстроила за 11 недель.
Съемки картины проходили в Филадельфии и окрестностях в штате Пенсильвания (округ Честер), а также в г. Центрвиль (штат Дэлавер), в г. Педриктаун (штат Нью-Джерси). Начало съемок — 8 октября 2003 года, а закончились они в середине декабря.


_________________
Проголосуй за трекер Открытый торрент трекер - RUS-MEDIA.ORG

Проголосуй Открытый торрент трекер - RUS-MEDIA.ORG


Вернуться к началу
 Профиль Отправить личное сообщение  
 
   Похожие торренты   Автор   Торрент   Размер 
В этой теме нет новых непрочитанных сообщений. Гнев / Man on Fire [Боевик, криминал, триллер, драма, 2004] WEB-DLRip-AVC, Dub | [Open Matte]

NTL

0 | 0

1.09 ГБ

В этой теме нет новых непрочитанных сообщений. Ван Хельсинг / Van Helsing [Фэнтези, боевик, триллер, 2004] WEB-DLRip-AVC, Dub [Open Matte]

salma3

0 | 0

4.44 ГБ

В этой теме нет новых непрочитанных сообщений. Гавань / Haven [Драма, криминал, 2004] WEB-DLRip-AVC, Dub

salma3

0 | 0

2.18 ГБ

В этой теме нет новых непрочитанных сообщений. Шоссе смерти / Highwaymen [боевик, триллер, криминал, 2004] WEB-DLRip-AVC, Dvo

salma3

0 | 0

743.43 МБ

В этой теме нет новых непрочитанных сообщений. Шоссе смерти / Highwaymen [боевик, триллер, криминал, 2004] WEB-DLRip-AVC, Dvo

salma3

0 | 0

1.87 ГБ

В этой теме нет новых непрочитанных сообщений. Участь Салема / 'Salem's Lot [мистика, ужасы, триллер, 2004] WEB-DLRip-AVC, Mvo

salma3

5 | 1

2.91 ГБ

В этой теме нет новых непрочитанных сообщений. Уимблдон / Wimbledon [Комедия, мелодрама, спорт, 2004] WEB-DLRip 720p, Dub [Open Matte]

salma3

3 | 0

4.9 ГБ


Начать новую тему Ответить на тему  [ 1 сообщение ] 




Для Мосгорсуда, Роскомнадзора и рекламодателей:: rstracker[собака]yandex.ru
cron