Торрент файл
скачать торрент магнет ссылка Добавлен: 12 июн 2020, 10:35
Размер: 3.39 ГБ
Сидеров: 0
Личеров: 0
Статус: (salma3)
Автор

СообщениеДобавлено: 12 июн 2020, 10:35 

Не в сети
Супермодератор
Аватара пользователя
Дата регистрации:
15 фев 2012, 16:44
Возраст: 33
Спасибо: 8325 / 2148
Сообщения: 97229
Год выхода: 1995
Жанр: Ужасы, триллер
Режиссер: Клайв Баркер

В ролях: Скотт Бакула, Кевин Дж. О’Коннор, Фамке Янссен, Винсент Скьявелли, Шила Таузи, Дэниэл фон Барген, Уэйн Грейс, Джозеф Лэтимор, Барбара Патрик, Джордан Мардер

О фильме:
Заурядное дело, которое расследует частный детектив Гарри, приобретает пугающий оборот, когда он сталкивается с тайной, окружающей всемирно знаменитого мага Филипа Свана и его красавицу жену Доротею. Гарри оказывается втянутым в чудовищный водоворот тайн, обмана и невообразимых ужасов. Иллюзия - трюк, но магия реальна...



Страна: США
Продолжительность: 02:01:33
Перевод: Профессиональный (полное дублирование) + Профессиональный (многоголосый, закадровый)
Субтитры: Английские

Файл
Формат: Matroska
Качество: BDRip-AVC
Видео: 1120x608 at 23.976 fps, x264@L4.1, ~3606 kbps, 0.221 bpp
Аудио #1: AC3, 2 ch, ~192 kbps - | Русский | - DUB (Варус Видео)
Аудио #2: AC3, 2 ch, ~192 kbps - | Русский | - MVO (СВ-Дубль / Медиа-Фильм) 2017г.
Формат субтитров: softsub (SRT)

***Релиз от: -=DoMiNo=-

x264 [info]: frame I:1326 Avg QP:16.89 size: 71794
x264 [info]: frame P:34033 Avg QP:18.14 size: 34092
x264 [info]: frame B:139518 Avg QP:20.07 size: 14565

General
Format : Matroska
Format version : Version 4
File size : 3.39 GiB
Duration : 2 h 1 min
Overall bit rate : 3 992 kb/s
Movie name : Повелитель Иллюзий.(1995).BDRip-AVC.[-=DoMiNo=-]
Encoded date : UTC 2020-06-11 15:25:57
Writing application : mkvmerge v47.0.0 ('Black Flag') 64-bit
Writing library : libebml v1.3.10 + libmatroska v1.5.2
Cover : Yes
Attachments : cover.jpg / cover 2.jpg

Video
ID : 1
Format : AVC
Format/Info : Advanced Video Codec
Format profile : High@L4.1
Format settings : CABAC / 12 Ref Frames
Format settings, CABAC : Yes
Format settings, Reference : 12 frames
Codec ID : V_MPEG4/ISO/AVC
Duration : 2 h 1 min
Bit rate : 3 606 kb/s
Width : 1 120 pixels
Height : 608 pixels
Display aspect ratio : 1.85:1
Frame rate mode : Constant
Frame rate : 23.976 (24000/1001) FPS
Color space : YUV
Chroma subsampling : 4:2:0
Bit depth : 8 bits
Scan type : Progressive
Bits/(Pixel*Frame) : 0.221
Stream size : 3.06 GiB (90%)
Title : -=DoMiNo=-
Writing library : x264 core 160 r3000 33f9e14
Encoding settings : cabac=1 / ref=12 / deblock=1:-3:-3 / analyse=0x3:0x133 / me=umh / subme=11 / psy=1 / psy_rd=1.00:0.00 / mixed_ref=1 / me_range=32 / chroma_me=1 / trellis=2 / 8x8dct=1 / cqm=0 / deadzone=21,11 / fast_pskip=0 / chroma_qp_offset=-2 / threads=6 / lookahead_threads=1 / sliced_threads=0 / nr=0 / decimate=1 / interlaced=0 / bluray_compat=0 / constrained_intra=0 / bframes=13 / b_pyramid=2 / b_adapt=2 / b_bias=0 / direct=1 / weightb=1 / open_gop=0 / weightp=2 / keyint=250 / keyint_min=23 / scenecut=40 / intra_refresh=0 / rc_lookahead=60 / rc=crf / mbtree=0 / crf=19.0 / qcomp=0.60 / qpmin=0 / qpmax=69 / qpstep=4 / vbv_maxrate=50000 / vbv_bufsize=62500 / crf_max=0.0 / nal_hrd=none / filler=0 / ip_ratio=1.40 / pb_ratio=1.30 / aq=3:1.00
Language : English
Default : Yes
Forced : No
Color range : Limited
Color primaries : BT.709
Transfer characteristics : BT.709
Matrix coefficients : BT.709

Audio #1
ID : 2
Format : AC-3
Format/Info : Audio Coding 3
Commercial name : Dolby Digital
Codec ID : A_AC3
Duration : 2 h 1 min
Bit rate mode : Constant
Bit rate : 192 kb/s
Channel(s) : 2 channels
Channel layout : L R
Sampling rate : 48.0 kHz
Frame rate : 31.250 FPS (1536 SPF)
Compression mode : Lossy
Stream size : 167 MiB (5%)
Title : DUB_[Варус Видео]
Language : Russian
Service kind : Complete Main
Default : Yes
Forced : No

Audio #2
ID : 3
Format : AC-3
Format/Info : Audio Coding 3
Commercial name : Dolby Digital
Codec ID : A_AC3
Duration : 2 h 1 min
Bit rate mode : Constant
Bit rate : 192 kb/s
Channel(s) : 2 channels
Channel layout : L R
Sampling rate : 48.0 kHz
Frame rate : 31.250 FPS (1536 SPF)
Compression mode : Lossy
Stream size : 167 MiB (5%)
Title : MVO_[СВ-Дубль]
Language : Russian
Service kind : Complete Main
Default : No
Forced : No

Text
ID : 4
Format : UTF-8
Codec ID : S_TEXT/UTF8
Codec ID/Info : UTF-8 Plain Text
Duration : 1 h 56 min
Bit rate : 32 b/s
Count of elements : 1251
Stream size : 28.1 KiB (0%)
Language : English
Default : No
Forced : No

Menu
00:00:00.000 : en:00:00:00.000
00:13:56.252 : en:00:13:56.252
00:28:25.287 : en:00:28:25.287
00:44:10.731 : en:00:44:10.731
00:59:55.383 : en:00:59:55.383
01:17:09.250 : en:01:17:09.250
01:33:42.242 : en:01:33:42.242
01:57:03.975 : en:01:57:03.975


_________________
Проголосуй за трекер Открытый торрент трекер - RUS-MEDIA.ORG

Проголосуй Открытый торрент трекер - RUS-MEDIA.ORG


Вернуться к началу
 Профиль Отправить личное сообщение  
 
   Похожие торренты   Автор   Торрент   Размер 
В этой теме нет новых непрочитанных сообщений. Повелитель иллюзий / Lord of Illusions [ужасы, триллер, детектив, 1995] BDRemux 1080p, Dub [Director's Cut]

salma3

0 | 2

33.43 ГБ

В этой теме нет новых непрочитанных сообщений. Сияние / The Shining (Стэнли Кубрик) [US Director's Cut] [1980 г., ужасы, триллер, драма, детектив, BDRip-HEVC 1080p] D, Р

zorgi

25 | 1

11.64 ГБ

В этой теме нет новых непрочитанных сообщений. Каратель / The Punisher [Боевик, триллер, драма, 2004] BDRip 720p, Mvo [Director's Cut]

salma3

0 | 0

6.46 ГБ

В этой теме нет новых непрочитанных сообщений. Робокоп / RoboCop [фантастика, боевик, триллер, 1987] BDRip 1080p, Mvo [Remastered Director's Cut]

salma3

0 | 0

11.74 ГБ

В этой теме нет новых непрочитанных сообщений. Призраки Исмаэля / Les fantômes d'Ismaël [драма, мелодрама, триллер, 2017] BDRip, Mvo [Director's Cut]

salma3

0 | 0

2.18 ГБ

В этой теме нет новых непрочитанных сообщений. Код Да Винчи / The Da Vinci Code [триллер, детектив, 2006] BDRip-AVC, Dub [Extended Cut]

K15

4 | 0

1.46 ГБ

В этой теме нет новых непрочитанных сообщений. Копы в глубоком запасе / The Other Guys [боевик, комедия, криминал, 2010] BDRip-AVC, Dub [Theatrical cut]

salma3

2 | 1

2.18 ГБ


Начать новую тему Ответить на тему  [ 1 сообщение ] 




Для Мосгорсуда, Роскомнадзора и рекламодателей:: rstracker[собака]yandex.ru
cron