Торрент файл
скачать торрент магнет ссылка Добавлен: 17 май 2020, 23:07
Размер: 2.18 ГБ
Сидеров: 2
Личеров: 0
Статус: (salma3)
Автор

СообщениеДобавлено: 17 май 2020, 23:07 

Не в сети
Супермодератор
Аватара пользователя
Дата регистрации:
15 фев 2012, 16:44
Возраст: 33
Спасибо: 8325 / 2148
Сообщения: 97229
Год выхода: 2011
Жанр: боевик, триллер, криминал
Режиссер: Гай Ричи

В ролях: Роберт Дауни мл., Джуд Лоу, Нуми Рапас, Джаред Харрис, Пол Андерсон, Стивен Фрай, Рэйчел МакАдамс, Келли Райлли, Джеральдин Джеймс, Эдди Марсан

О фильме: Австрийский крон-принц найден мертвым. Полиция считает, что это простое самоубийство. Но Шерлок Холмс, исследуя улики, приходит к выводу, что это спланированное убийство, завуалированное под самоубийство. Знаменитый сыщик считает, что за всем этим стоит его давний недруг - профессор Мориарти, который создал грандиозную мозаику преступления, где убийство принца - только маленький ее кусочек. Начавшееся Шерлоком Холмсом и Доктором Ватсоном расследование, подвергает их жизни большой опасности. Ведя следствие, они вместе с невольной помощницей цыганкой Симзой совершают путешествие по Европе, сначала из Англии во Францию, потом в Германию и Швейцарию. Но злой, хитрый, беспринципный и очень умный профессор Мориарти всегда на шаг опережает сыщиков, сея на своем пути смерть и разрушения, ставя ловушки и капканы, чтобы уничтожить своих преследователей, которые хотят помешать одержимому профессору исполнить триумфальные планы, которые изменят ход истории.



Страна: США, Великобритания
Продолжительность: 02:08:44
Перевод: Авторский (одноголосый, закадровый) Дмитрий «Goblin» Пучков

Файл
Качество: BDRip
Формат: AVI
Видео: 720x304 at 23.976 fps, XviD, ~1800 kbps avg
Аудио#1: Russian: 48 kHz, AC3, 2/0 (L,R) ch, ~192 kbps avg |Авторский, Дмитрий «Goblin» Пучков|
Аудио#2: English: 48 kHz, AC3, 3/2 (L,C,R,l,r) + LFE ch, ~448 kbps avg
Субтитры: Russian (Forced, Full), Ukrainian (Forced, Full), English (Forced, Full, SDH)

***Релиз: HRIME

Брэд Питт, Гари Олдман, Дэниел Дэй-Льюис, Шон Пенн и Хавьер Бардем рассматривались на роль профессора Мориарти.
Макияж Холмса в сцене разборки в поезде — это аллюзия на внешний вид Джокера в исполнении Хита Леджера («Темный рыцарь»).
В финальной части картины, Шерлок Холмс ставит профессору шах слоном, на что тот отвечает рокировкой. Устная партия, тем не менее, продолжается. По правилам, рокировка из-под шаха запрещена.
[*]До Первой мировой войны, в английской армии ручные гранаты были только с контактным взрывателем. Они взрывались, если после удаления предохранительной чеки их роняли или ударяли о землю или твёрдую поверхность.
Общее
Полное имя : Sherlok.Holms.Igra.Tenei.2011.DUAL.BDRip.XviD.AC3.-HRIME.avi
Формат : AVI
Формат/Информация : Audio Video Interleave
Профиль формата : OpenDML
Размер файла : 2,18 Гбайт
Продолжительность : 2 ч. 8 м.
Общий поток : 2 424 Кбит/сек
Название фильма : Sherlock.Holmes.A.Game.Of.Shadows.2011.Guy.Ritchie
Программа кодирования : VirtualDubMod 1.5.10.2 (build 2540/release)
Формат оригинала/Имя : Movie
Примечание : 16.04.2020

Видео
Идентификатор : 0
Формат : MPEG-4 Visual
Профиль формата : Advanced Simple@L5
Настройки формата : BVOP1 / Custom Matrix
Параметр BVOP формата : 1
Параметр QPel формата : Нет
Параметр GMC формата : Без точки перехода
Параметр матрицы формата : Выборочная
Идентификатор кодека : XVID
Идентификатор кодека/Подсказка : XviD
Продолжительность : 2 ч. 8 м.
Битрейт : 1 766 Кбит/сек
Ширина : 720 пикселей
Высота : 304 пикселя
Соотношение сторон : 2,35:1
Частота кадров : 23,976 (24000/1001) кадра/сек
Цветовое пространство : YUV
Субдискретизация насыщенности : 4:2:0
Битовая глубина : 8 бит
Тип развёртки : Прогрессивная
Метод сжатия : С потерями
Бит/(Пиксели*Кадры) : 0.336
Размер потока : 1,59 Гбайт (73%)
Библиотека кодирования : XviD 67

Аудио #1
Идентификатор : 1
Формат : AC-3
Формат/Информация : Audio Coding 3
Коммерческое название : Dolby Digital
Идентификатор кодека : 2000
Продолжительность : 2 ч. 8 м.
Вид битрейта : Постоянный
Битрейт : 192 Кбит/сек
Каналы : 2 канала
Channel layout : L R
Частота : 48,0 КГц
Частота кадров : 31,250 кадров/сек (1536 SPF)
Метод сжатия : С потерями
Размер потока : 177 Мбайт (8%)
Выравнивание : Разделение по промежуткам
Продолжительность промежутка : 42 мс. (1,00 видеокадр)
Время предзагрузки промежутка : 500 мс.
Service kind : Complete Main

Аудио #2
Идентификатор : 2
Формат : AC-3
Формат/Информация : Audio Coding 3
Коммерческое название : Dolby Digital
Идентификатор кодека : 2000
Продолжительность : 2 ч. 8 м.
Вид битрейта : Постоянный
Битрейт : 448 Кбит/сек
Каналы : 6 каналов
Channel layout : L R C LFE Ls Rs
Частота : 48,0 КГц
Частота кадров : 31,250 кадров/сек (1536 SPF)
Метод сжатия : С потерями
Размер потока : 413 Мбайт (18%)
Выравнивание : Разделение по промежуткам
Продолжительность промежутка : 42 мс. (1,00 видеокадр)
Время предзагрузки промежутка : 500 мс.
Service kind : Complete Main


_________________
Проголосуй за трекер Открытый торрент трекер - RUS-MEDIA.ORG

Проголосуй Открытый торрент трекер - RUS-MEDIA.ORG


Вернуться к началу
 Профиль Отправить личное сообщение  
 
   Похожие торренты   Автор   Торрент   Размер 
В этой теме нет новых непрочитанных сообщений. Шерлок Холмс / Sherlock Holmes [боевик, приключения, триллер, 2009] BDRip, Avo

salma3

0 | 0

2.18 ГБ

В этой теме нет новых непрочитанных сообщений. Игра на выживание / Game of survival (Сезон 1 , Серия 1-12 из 12)) (Карен Оганесян) [2020, Приключения, триллер, драма , WEB-DLRip - HEVC - 1080p]

Враг Нароода

1 | 1

14.28 ГБ

В этой теме нет новых непрочитанных сообщений. Ангел мести / Vanquish [Боевик, триллер, криминал, 2021] BDRip, Avo [Чадов]

salma3

2 | 0

1.46 ГБ

В этой теме нет новых непрочитанных сообщений. Киллер по вызову / Lucky Day [Боевик, триллер, криминал, 2019] BDRip-AVC, Avo

salma3

0 | 0

1.46 ГБ

В этой теме нет новых непрочитанных сообщений. Киллер по вызову / Lucky Day [боевик, триллер, криминал, 2019] BDRip 1080p, Avo

salma3

0 | 0

7.79 ГБ

В этой теме нет новых непрочитанных сообщений. Игра Ганнибала / Nomis / Night Hunter [Боевик, триллер, 2018] BDRip, Dub [iTunes]

salma3

0 | 0

1.42 ГБ

В этой теме нет новых непрочитанных сообщений. Игра Ганнибала / Nomis / Night Hunter [Боевик, триллер, 2018] BDRip-AVC, Dub [iTunes]

salma3

0 | 0

1.96 ГБ


Начать новую тему Ответить на тему  [ 1 сообщение ] 




Для Мосгорсуда, Роскомнадзора и рекламодателей:: rstracker[собака]yandex.ru
cron