Торрент файл
скачать торрент магнет ссылка Добавлен: 25 май 2011, 02:31
Размер: 1.37 ГБ
Сидеров: 18
Личеров: 7
Автор

СообщениеДобавлено: 25 май 2011, 02:31 

Не в сети
Супермодератор
Аватара пользователя
Дата регистрации:
22 май 2010, 11:03
Возраст: 31
Спасибо: 7509 / 13
Сообщения: 49940
Пусть говорят / Digan lo que digan

Перевод: Профессиональный (многоголосый, закадровый), cубтитры: отсутствуют
Формат: DVDRip, AVI, XviD, AC3

Страна: Испания, Аргентина
Режиссер: Марио Камус
Жанр: мюзикл, драма

Продолжительность: 01:33:27
Год выпуска: 1968

В ролях: Рафаэль, Серена Вергано, Игнасио Кирос, Сусана Кампос, Дарио Виттори, Эрнан Гуидо, Альдо Бигатти, Алисия Дункан, Эктор Бьюше, Рикардо Канепа
Описание: Много лет не видели друг друга два брата - певец Рафаэль и композитор Мигель. Чтобы повидаться с братом, Рафаэль приезжает из Европы в Буэнос-Айрес. Но встречает его не Мигель, а девушка Бланка, которая ведёт себя несколько странно и утверждает, что Мигеля нет в городе... Молодой талантливый певец Рафаэль начинает понимать, что девушка от него что-то скрывает и не говорит ему всю правду о его брате. Тогда Рафаэль начинает сам искaть своего брата, известного пианиста и композитора Мигеля...



[/field]

Видео: 672x336 (2:1), 25 fps, XviD MPEG-4 1638kbps avg, 0.29 bit/pixel

Аудио #1:Русский: Dolby AC3 48kHz stereo 224kbps [Профессиональный (многоголосый, закадровый)]
Аудио #2:Испанский: Dolby AC3 48kHz stereo 224kbps [Оригинал]


General
Complete name: D:\Pust.govorjat.1968.XviD.DVDRip.avi
Format: AVI
Format/Info: Audio Video Interleave
File size: 1.37 GiB
Duration: 1h 33mn
Overall bit rate: 2 101 Kbps
Writing application: VirtualDubMod 1.5.10.2 (build 2540/release)
Writing library: VirtualDubMod build 2540/release

Video
ID: 0
Format: MPEG-4 Visual
Format profile: Advanced Simple@L5
Format settings, BVOP: Yes
Format settings, QPel: No
Format settings, GMC: No warppoints
Format settings, Matrix: Custom
Codec ID: XVID
Codec ID/Hint: XviD
Duration: 1h 33mn
Bit rate: 1 638 Kbps
Width: 672 pixels
Height: 336 pixels
Display aspect ratio: 2.000
Frame rate: 25.000 fps
Color space: YUV
Chroma subsampling: 4:2:0
Bit depth: 8 bits
Scan type: Progressive
Compression mode: Lossy
Bits/(Pixel*Frame): 0.290
Stream size: 1.07 GiB (78%)
Writing library: XviD 1.2.0SMP (UTC 2006-01-0

Audio #1
ID: 1
Format: AC-3
Format/Info: Audio Coding 3
Format profile: Dolby Digital
Mode extension: CM (complete main)
Codec ID: 2000
Duration: 1h 33mn
Bit rate mode: Constant
Bit rate: 224 Kbps
Channel(s): 2 channels
Channel positions: Front: L R
Sampling rate: 48.0 KHz
Bit depth: 16 bits
Compression mode: Lossy
Stream size: 150 MiB (11%)
Alignment: Split accross interleaves
Interleave, duration: 40 ms (1.00 video frame)
Interleave, preload duration: 500 ms

Audio #2
ID: 2
Format: AC-3
Format/Info: Audio Coding 3
Format profile: Dolby Digital
Mode extension: CM (complete main)
Codec ID: 2000
Duration: 1h 33mn
Bit rate mode: Constant
Bit rate: 224 Kbps
Channel(s): 2 channels
Channel positions: Front: L R
Sampling rate: 48.0 KHz
Bit depth: 16 bits
Compression mode: Lossy
Stream size: 150 MiB (11%)
Alignment: Split accross interleaves
Interleave, duration: 40 ms (1.00 video frame)
Interleave, preload duration: 500 ms













реклама партнёра


Вернуться к началу
 Профиль Отправить личное сообщение  
 
   Похожие торренты   Автор   Торрент   Размер 
В этой теме нет новых непрочитанных сообщений. Оливер! / Oliver! [мюзикл, драма, криминал, семейный, 1968] HDTV 1080i, Mvo+Sub

salma3

34 | 30

12.77 ГБ

В этой теме нет новых непрочитанных сообщений. Внеклассный мюзикл / Sunday School Musical [мюзикл, драма, 2008] DVDRip, Mvo

salma3

5 | 3

1.37 ГБ

В этой теме нет новых непрочитанных сообщений. Влюбленные / Amanti [драма, мелодрама, 1968] DVDRip, Mvo

salma3

16 | 3

1.37 ГБ

В этой теме нет новых непрочитанных сообщений. Детектив / The Detective [драма, криминал, 1968] DVDRip, Dvo

salma3

18 | 2

1.46 ГБ

В этой теме нет новых непрочитанных сообщений. Захватчики / The Invaders [s01-02] [фантастика, триллер, драма, 1967-1968] DVDRip, Dvo

salma3

7 | 5

31.76 ГБ

В этой теме нет новых непрочитанных сообщений. Без одежды / Без шва / Без единой нитки / Uden en trævl / Die Jungfrau von 18 Karat [драма, комедия, 1968] DVDRip, Avo

salma3

104 | 4

1.45 ГБ

В этой теме нет новых непрочитанных сообщений. Давайте надеяться, что будет девочка / Надеемся, что будет девочка / Speriamo che sia femmina (Марио Моничелли / Mario Monicelli) [1986г., драма, комедия, DVDRip] avo

Alfredovich

5 | 3

1.47 ГБ


Начать новую тему Ответить на тему  [ 1 сообщение ] 




Для Мосгорсуда, Роскомнадзора и рекламодателей:: mosgorsud-torrent[собачка]yandex.ru