Торрент файл
скачать торрент магнет ссылка Добавлен: 25 май 2011, 02:28
Размер: 1.99 ГБ
Сидеров: 0
Личеров: 10
Автор

СообщениеДобавлено: 25 май 2011, 02:28 

Не в сети
Супермодератор
Аватара пользователя
Дата регистрации:
22 май 2010, 11:03
Возраст: 31
Спасибо: 7513 / 13
Сообщения: 49940
Легенда о потерянном / Legend of the Lost




Перевод: Авторский одноголосый (С. Кузнецов), cубтитры: отсутствуют
Формат: DVDRip, MKV, H.264, AC3
Страна: США, Италия
Режиссер: Генри Хэтэуэй
Жанр: Приключения
Продолжительность: 01:44:05
Год выпуска: 1957

В ролях: Джон Уэйн, Софи Лорен, Россано Брацци, Курт Казнар, Соня Мосер, Марша Хант, Ибрагим Эль Хадиш, Анжела Портулари
Описание: Пол Боннард приезжает в Тимбукту и начинает искать проводника, который сопроводил бы его по африканской пустыне. Проводник находится в лице американца Джо, которому правда не сильно по душе маршрут, который избрал Боннард. Тем не менее в пустыне они и последовавшая за ними проститутка Дита обнаруживают руины древнего храма, где Боннард планирует отыскать сокровища, спрятанные когда-то давно его пропавшим отцом.



Видео: 720x432 @ 1019×432 (2.53:1), 25 fps, AVC MPEG4, x264 High@L4.1 ~2543 kbps avg, 0.327 bit/pixel
Аудио: 48 kHz, AC-3, L R, 2 ch, ~192.00 kbps avg

Общее
Полное имя: C:\Documents and Settings\Администратор\Мои документы\Downloads\Фильмы\Legenda_o_poterjanom_[tfile.ru].mkv
Формат: Matroska
Размер файла: 1,99 Гбайт
Продолжительность: 1 ч. 44 м.
Общий поток: 2739 Кбит/сек
Дата кодирования: UTC 2011-03-20 18:32:21
Программа кодирования: mkvmerge v2.3.0 ('Freak U') built on Sep8 2008 18:32:16
Библиотека кодирования: libebml v0.7.7 + libmatroska v0.8.1

Видео
Идентификатор: 1
Формат: AVC
Формат/Информация: Advanced Video Codec
Профиль формата: High@L4.1
Параметр CABAC формата: Да
Параметр ReFrames формата: 4 кадры
Режим смешивания: Container profile=Unknown@4.1
Идентификатор кодека: V_MPEG4/ISO/AVC
Продолжительность: 1 ч. 44 м.
Битрейт: 2543 Кбит/сек
Ширина: 720 пикс.
Высота: 432 пикс.
Соотношение сторон: 2,35:1
Частота кадров: 25,000 кадр/сек
Цветовое пространство: YUV
Подвыборка цветности: 4:2:0
Битовая глубина: 8 бит
Тип развёртки: Прогрессивная
Бит/(Пиксели*Кадры): 0.327
Размер потока: 1,81 Гбайт (91%)
Библиотека кодирования: x264 core 92 r1510 33d382a
Настройки программы: cabac=1 / ref=3 / deblock=1:0:0 / analyse=0x3:0x133 / me=umh / subme=7 / psy=1 / psy_rd=1.00:0.10 / mixed_ref=1 / me_range=16 / chroma_me=1 / trellis=2 / 8x8dct=1 / cqm=0 / deadzone=21,11 / fast_pskip=0 / chroma_qp_offset=-3 / threads=3 / sliced_threads=0 / nr=0 / decimate=1 / interlaced=0 / constrained_intra=0 / bframes=3 / b_pyramid=2 / b_adapt=2 / b_bias=0 / direct=3 / wpredb=1 / wpredp=2 / keyint=250 / keyint_min=25 / scenecut=40 / intra_refresh=0 / rc_lookahead=50 / rc=2pass / mbtree=1 / bitrate=2543 / ratetol=1.0 / qcomp=0.60 / qpmin=10 / qpmax=51 / qpstep=4 / cplxblur=20.0 / qblur=0.5 / ip_ratio=1.40 / aq=1:1.00

Аудио
Идентификатор: 2
Формат: AC-3
Формат/Информация: Audio Coding 3
Расширение режима: CM (complete main)
Идентификатор кодека: A_AC3
Продолжительность: 1 ч. 44 м.
Вид битрейта: Постоянный
Битрейт: 192 Кбит/сек
Канал(ы): 2 канала(ов)
Расположение каналов: Front: L R
Частота: 48,0 КГц
Битовая глубина: 16 бит
Размер потока: 143 Мбайт (7%)




















реклама партнёра


Вернуться к началу
 Профиль Отправить личное сообщение  
 
   Похожие торренты   Автор   Торрент   Размер 
В этой теме нет новых непрочитанных сообщений. Легенда о потерянном / Legend of the Lost [Драма, приключения, 1957] BDRip 1080p, Avo+Sub

salma3

3 | 5

7.66 ГБ

В этой теме нет новых непрочитанных сообщений. Моцзинь: Забытая легенда / Mojin: The Lost Legend [приключения, ужасы, экшн, 2015] HDRip, Dvo

salma3

268 | 77

2.07 ГБ

В этой теме нет новых непрочитанных сообщений. Легенда Судсакорна / Legend of Sudsakorn [Фэнтези, боевик, приключения, 2006] DVDRip, Dvo

salma3

190 | 42

1.37 ГБ

В этой теме нет новых непрочитанных сообщений. Тарзан. Легенда / The Legend of Tarzan [Боевик, приключения, 2016] WEBRip, Mvo

salma3

2687 | 265

1.46 ГБ

В этой теме нет новых непрочитанных сообщений. Тарзан. Легенда / The Legend of Tarzan [Боевик, приключения, 2016] WEB-DLRip, Dub [iTunes]

salma3

39 | 4

2.05 ГБ

В этой теме нет новых непрочитанных сообщений. Тарзан. Легенда / The Legend of Tarzan [боевик, приключения, 2016] WEBRip, Dub [звук с TS]

salma3

4228 | 526

1.46 ГБ

В этой теме нет новых непрочитанных сообщений. Недооформлен Тарзан. Легенда / The Legend of Tarzan (Боевик, приключения, 2016) BDRip от MegaPeer | P Данный торрент является блокированным, причина: недооформленный торрент

marya111

0 | 0

1.46 ГБ


Начать новую тему Ответить на тему  [ 1 сообщение ] 




Для Мосгорсуда, Роскомнадзора и рекламодателей:: mosgorsud-torrent[собачка]yandex.ru