Торрент файл
скачать торрент магнет ссылка Добавлен: 25 май 2011, 02:27
Размер: 1.5 ГБ
Сидеров: 82
Личеров: 10
Автор

СообщениеДобавлено: 25 май 2011, 02:27 

Не в сети
Супермодератор
Аватара пользователя
Дата регистрации:
22 май 2010, 11:03
Возраст: 32
Спасибо: 7668 / 13
Сообщения: 49894
Бал вампиров / Dance of the Vampires


Перевод: Профессиональный (многоголосый, закадровый)
Субтитры: русские, английские
Формат: DVDRip, AVI, XviD, AC3
Страна: США, Великобритания
Режиссер: Роман Полански
Жанр: ужасы, комедия
Продолжительность: 01:47:24
Год выпуска: 1967

В ролях: Джек МакГаурен, Роман Полански, Шэрон Тейт, Фердинанд Мейн, Элфи Басс, Ферди Мейн, Терри Даунс, Фиона Льюис, Рональд Лэйси, Сидней Бромли, Андреас Маландринос, Отто Дайамант, Мэттью Уолтерс, Йен Карьер

Описание: Профессор Абронзиус и его неопытный ассистент Альфред отправляются в Трансильванию, их цель- охота на вампиров. В заснеженных Карпатах, на постоялом дворе, где они остановились, Альфред знакомится с дочерью хозяина — прекрасной Сарой.
Это знакомство было недолгим: коварный вампир похитил рыжеволосую красавицу и унес ее в свой мрачный замок в горах. Профессор и Альфред нашли прибежище нечисти. Удастся ли им перехитрить кровососов и спасти Сару, пока она сама не превратится в вампиршу?




Видео: 720х304 (2.35:1), 23.976 fps, XviD MPEG-4, ~1576 kbps avg, 0.300 bit/pixel
Аудио #1: русский 48 kHz, AC3, 2 ch, ~192 kbps avg [Профессиональный (многоголосый закадровый)]
Аудио #2: английский 48 kHz, AC3, 2 ch, ~192 kbps avg [Оригинал]

Слоган: «Who says Vampires are no laughing matter?» / «Кто сказал, что вампирам не до смеха?»

Из отзывов…


Общее
Уникальный идентификатор: 238873514821982798516223962753891797795 (0xB3B55D922C3677818C1BFF039EF38B23)
Полное имя: T:\Video\Bal_vampirov.1967.XviD.DVDRip.avi
Формат: Matroska
Размер файла: 1,50 Гбайт
Продолжительность: 1 ч. 47 м.
Общий поток: 2000 Кбит/сек
Дата кодирования: UTC 2011-03-25 05:20:48
Программа кодирования: mkvmerge v4.0.0 ('The Stars were mine') сборка от Jun6 2010 16:18:42
Библиотека кодирования: libebml v1.0.0 + libmatroska v1.0.0

Видео
Идентификатор: 1
Формат: MPEG-4 Visual
Профиль формата: Advanced Simple@L5
Параметр BVOP формата: Да
Параметр QPel формата: Нет
Параметр GMC формата: Без точки перехода
Параметр матрицы формата: Default (MPEG)
Идентификатор кодека: XVID
Идентификатор кодека/Подсказка: XviD
Продолжительность: 1 ч. 47 м.
Битрейт: 1576 Кбит/сек
Ширина: 720 пикс.
Высота: 304 пикс.
Соотношение сторон: 2,35:1
Частота кадров: 23,976 кадр/сек
Цветовое пространство: YUV
Подвыборка цветности: 4:2:0
Битовая глубина: 8 бит
Тип развёртки: Прогрессивная
Метод сжатия: С потерями
Бит/(Пиксели*Кадры): 0.300
Размер потока: 1,18 Гбайт (79%)
Заголовок: 1967.XviD.DVDRip
Библиотека кодирования: XviD 1.2.0.dev47 (UTC 2006-11-01)
Язык: English

Аудио #1
Идентификатор: 2
Формат: AC-3
Формат/Информация: Audio Coding 3
Расширение режима: CM (complete main)
Идентификатор кодека: A_AC3
Продолжительность: 1 ч. 47 м.
Вид битрейта: Постоянный
Битрейт: 192 Кбит/сек
Канал(ы): 2 канала(ов)
Расположение каналов: Front: L R
Частота: 48,0 КГц
Битовая глубина: 16 бит
Метод сжатия: С потерями
Размер потока: 148 Мбайт (10%)
Заголовок: MVO
Язык: Russian

Аудио #2
Идентификатор: 3
Формат: AC-3
Формат/Информация: Audio Coding 3
Расширение режима: CM (complete main)
Идентификатор кодека: A_AC3
Продолжительность: 1 ч. 47 м.
Вид битрейта: Постоянный
Битрейт: 192 Кбит/сек
Канал(ы): 2 канала(ов)
Расположение каналов: Front: L R
Частота: 48,0 КГц
Битовая глубина: 16 бит
Метод сжатия: С потерями
Размер потока: 148 Мбайт (10%)
Заголовок: Original
Язык: English

Текст #1
Идентификатор: 4
Формат: UTF-8
Идентификатор кодека: S_TEXT/UTF8
Идентификатор кодека/Информация: UTF-8 Plain Text
Заголовок: русский
Язык: Russian

Текст #2
Идентификатор: 5
Формат: UTF-8
Идентификатор кодека: S_TEXT/UTF8
Идентификатор кодека/Информация: UTF-8 Plain Text
Заголовок: английский















реклама партнёра


Вернуться к началу
 Профиль Отправить личное сообщение  
 
   Похожие торренты   Автор   Торрент   Размер 
В этой теме нет новых непрочитанных сообщений. Баффи - истребительница вампиров / Buffy the Vampire Slayer [Ужасы, Комедия, Боевик, 1992] BDRip 720p, Mvo+Avo+Sub

salma3

58 | 16

4.37 ГБ

В этой теме нет новых непрочитанных сообщений. Саван мумии / The Mummy's Shroud [ужасы, 1967] DVDRip, Dvo [НТВ+]

salma3

75 | 15

1.47 ГБ

В этой теме нет новых непрочитанных сообщений. Земля вампиров 2 / The Stakelander (ужасы, боевик, 2016) HDTVRip 720p | L1

marya111

1019 | 126

1.71 ГБ

В этой теме нет новых непрочитанных сообщений. Земля вампиров / Stake Land [Ужасы, 2010] HDRip-AVC, Dub [лицензия]

salma3

172 | 27

745.7 МБ

В этой теме нет новых непрочитанных сообщений. Земля вампиров 2 / Stake Land 2 / The Stakelander [ужасы, боевик, 2016] HDTVRip-AVC, Avo

salma3

647 | 58

711.67 МБ

В этой теме нет новых непрочитанных сообщений. Восьмёрка беглецов / Eight on the Lam [комедия, 1967] DVDRip, Dvo [НТВ+]

salma3

29 | 5

1.37 ГБ

В этой теме нет новых непрочитанных сообщений. Вор / Le voleur [драма, комедия, криминал, 1967] DVDRip, Dvo

salma3

43 | 6

1.46 ГБ


Начать новую тему Ответить на тему  [ 1 сообщение ] 




Для Мосгорсуда, Роскомнадзора и рекламодателей:: mosgorsud-torrent[собачка]yandex.ru