Торрент файл
скачать торрент магнет ссылка Добавлен: 04 дек 2019, 13:55
Размер: 2.18 ГБ
Сидеров: 2
Личеров: 1
Статус: (salma3)
Автор

СообщениеДобавлено: 04 дек 2019, 13:55 

Не в сети
Супермодератор
Аватара пользователя
Дата регистрации:
15 фев 2012, 16:44
Возраст: 32
Спасибо: 8321 / 2148
Сообщения: 97229
Год выхода: 1994
Жанр: Приключения, мелодрама, семейный
Режиссер: Стивен Соммерс

В ролях: Джейсон Скотт Ли, Кэри Элвис, Лена Хиди, Сэм Нил, Джон Клиз, Джейсон Флеминг, Стэфан Калифа, Рон Донаки, Анирудх Агарвал, Фаран Таир, Джоэнна Фолфф, Лайза Уокер, Рэйчел Робертсон, Натали Морс, Джерри Крэмптон, Эд Гэйл, Нильс Фолькманн

О фильме:
Выросший в джунглях среди диких животных Маугли влюбляется в Кэтлин, дочку полковника Джефри Брайдона, с которой он был знаком еще до того, как потерялся в джунглях. Но подлый жених Кэтлин, капитан Бун, получив от неё отказ, похищает её, чтобы заставить Маугли привести его к сокровищам затерянного обезьяньего города.



Страна: США
Продолжительность: 01:51:05
Перевод: Профессиональный (двухголосый, закадровый)
Субтитры: Русские, английские

Файл
Формат: Matroska
Качество: WEB-DLRip-AVC | AMZN
Видео: 1024x436 at 23.976 fps, x264, ~2362 kbps, 0.221 bpp
Аудио: AC3, 6 ch, ~448 kbps - | Русский | - DVO - Twister
Формат субтитров: softsub (SRT)

***Релиз от: -=DoMiNo=-

x264 [info]: frame I:1343 Avg QP:18.70 size: 54795
x264 [info]: frame P:42225 Avg QP:20.11 size: 23538
x264 [info]: frame B:116245 Avg QP:21.68 size: 7610
x264 [info]: consecutive B-frames: 4.7% 5.9% 10.6% 34.1% 14.3% 21.6% 3.6% 3.3% 1.1% 0.5% 0.2% 0.1% 0.1%

General
Format : Matroska
Format version : Version 4
File size : 2.18 GiB
Duration : 1 h 51 min
Overall bit rate : 2 811 kb/s
Movie name : Книга Джунглей.(1994).WEB-DLRip-AVC.[-=DoMiNo=-]
Encoded date : UTC 2019-12-03 17:50:02
Writing application : mkvmerge v40.0.0 ('Old Town Road + Pony') 64-bit
Writing library : libebml v1.3.9 + libmatroska v1.5.2
Attachments : poster.jpg / poster 2.jpg

Video
ID : 1
Format : AVC
Format/Info : Advanced Video Codec
Format profile : High@L4.1
Format settings : CABAC / 12 Ref Frames
Format settings, CABAC : Yes
Format settings, Reference : 12 frames
Codec ID : V_MPEG4/ISO/AVC
Duration : 1 h 51 min
Bit rate : 2 362 kb/s
Width : 1 024 pixels
Height : 436 pixels
Display aspect ratio : 2.35:1
Frame rate mode : Constant
Frame rate : 23.976 (24000/1001) FPS
Color space : YUV
Chroma subsampling : 4:2:0
Bit depth : 8 bits
Scan type : Progressive
Bits/(Pixel*Frame) : 0.221
Stream size : 1.83 GiB (84%)
Title : RIP_BY_-=DoMiNo=-
Writing library : x264 core 152 r2851kMod ba24899
Encoding settings : cabac=1 / ref=12 / deblock=1:-2:-2 / analyse=0x3:0x133 / me=umh / subme=11 / psy=1 / fade_compensate=0.00 / psy_rd=1.00:0.00 / mixed_ref=1 / me_range=32 / chroma_me=1 / trellis=2 / 8x8dct=1 / cqm=0 / deadzone=21,11 / fast_pskip=0 / chroma_qp_offset=-2 / threads=6 / lookahead_threads=1 / sliced_threads=0 / nr=0 / decimate=0 / interlaced=0 / bluray_compat=0 / constrained_intra=0 / bframes=12 / b_pyramid=2 / b_adapt=2 / b_bias=0 / direct=3 / weightb=1 / open_gop=0 / weightp=2 / keyint=240 / keyint_min=24 / scenecut=40 / intra_refresh=0 / rc=2pass / mbtree=0 / bitrate=2362 / ratetol=1.0 / qcomp=0.65 / qpmin=0 / qpmax=69 / qpstep=4 / cplxblur=20.0 / qblur=0.5 / ip_ratio=1.40 / pb_ratio=1.30 / aq=3:0.90
Language : English
Default : Yes
Forced : No
Color range : Limited
Color primaries : BT.709
Transfer characteristics : BT.709
Matrix coefficients : BT.709

Audio
ID : 2
Format : AC-3
Format/Info : Audio Coding 3
Commercial name : Dolby Digital
Codec ID : A_AC3
Duration : 1 h 51 min
Bit rate mode : Constant
Bit rate : 448 kb/s
Channel(s) : 6 channels
Channel layout : L R C LFE Ls Rs
Sampling rate : 48.0 kHz
Frame rate : 31.250 FPS (1536 SPF)
Compression mode : Lossy
Stream size : 356 MiB (16%)
Title : DVO | Twister
Language : Russian
Service kind : Complete Main
Default : Yes
Forced : No

Text #1
ID : 3
Format : UTF-8
Codec ID : S_TEXT/UTF8
Codec ID/Info : UTF-8 Plain Text
Duration : 1 h 46 min
Bit rate : 32 b/s
Count of elements : 604
Stream size : 25.6 KiB (0%)
Language : Russian
Default : No
Forced : No

Text #2
ID : 4
Format : UTF-8
Codec ID : S_TEXT/UTF8
Codec ID/Info : UTF-8 Plain Text
Duration : 1 h 46 min
Bit rate : 40 b/s
Count of elements : 1105
Stream size : 31.3 KiB (0%)
Language : English
Default : No
Forced : No

Menu
00:00:00.000 : en:00:00:00.000
00:11:15.967 : en:00:11:15.967
00:19:32.880 : en:00:19:32.880
00:32:54.389 : en:00:32:54.389
00:43:29.565 : en:00:43:29.565
00:55:23.904 : en:00:55:23.904
01:03:20.547 : en:01:03:20.547
01:12:38.187 : en:01:12:38.187
01:17:08.541 : en:01:17:08.541
01:24:29.898 : en:01:24:29.898
01:34:50.268 : en:01:34:50.268
01:41:04.684 : en:01:41:04.684


_________________
Проголосуй за трекер Открытый торрент трекер - RUS-MEDIA.ORG

Проголосуй Открытый торрент трекер - RUS-MEDIA.ORG


Вернуться к началу
 Профиль Отправить личное сообщение  
 
   Похожие торренты   Автор   Торрент   Размер 
В этой теме нет новых непрочитанных сообщений. Из джунглей в джунгли / Із джунглів у джунглі / Jungle 2 Jungle [Комедия, приключения, семейный, 1997] BDRip 1080p, Mvo

salma3

1 | 0

9.16 ГБ

В этой теме нет новых непрочитанных сообщений. Каракум / Karakum [приключения, семейный, 1994] WEB-DLRip, Avo

salma3

0 | 0

1.46 ГБ

В этой теме нет новых непрочитанных сообщений. Богатенький Ричи / Richie Rich [комедия, семейный, 1994] WEB-DLRip-AVC, Dub

salma3

0 | 0

747.28 МБ

В этой теме нет новых непрочитанных сообщений. Сокровище нации: Книга Тайн / National Treasure: Book of Secrets [боевик, комедия, приключения, 2007] WEB-DL 1080p, Dub [Open Matte]

salma3

0 | 0

11.75 ГБ

В этой теме нет новых непрочитанных сообщений. Человек эпохи Возрождения / Renaissance Man [драма, комедия, 1994] WEB-DLRip-AVC, Dvo

salma3

1 | 0

3.59 ГБ

В этой теме нет новых непрочитанных сообщений. Восход красного солнца / Red Sun Rising [боевик, 1994] WEB-DLRip-AVC, Dvo

salma3

0 | 1

2.91 ГБ

В этой теме нет новых непрочитанных сообщений. Карманные деньги / Milk Money [мелодрама, комедия, 1994] WEB-DLRip-AVC, Mvo

salma3

0 | 0

1.45 ГБ


Начать новую тему Ответить на тему  [ 1 сообщение ] 




Для Мосгорсуда, Роскомнадзора и рекламодателей:: rstracker[собака]yandex.ru
cron