COVID-19 - Последняя информация о коронавирусе на сайте Минздрава




Торрент файл
скачать торрент магнет ссылка Добавлен: 30 ноя 2019, 21:34
Размер: 1.08 ГБ
Сидеров: 0
Личеров: 0
Статус: (salma3)
Автор

СообщениеДобавлено: 30 ноя 2019, 21:34 

Не в сети
Супермодератор
Аватара пользователя
Дата регистрации:
15 фев 2012, 16:44
Возраст: 31
Спасибо: 8273 / 2148
Сообщения: 96473
Год выхода: 2002
Жанр: фэнтези, комедия, приключения
Режиссер: Ален Шаба

В ролях: Жерар Депардье (Obélix), Кристиан Клавье (Astérix), Жамель Деббуз (Numérobis / Edifis), Моника Беллуччи (Cléopâtre), Ален Шаба (Jules César, (Julius Caesar)), Клод Риш (Panoramix, (Miraculix) / Getafix), Жерар Дармон (Amonbofis, (Pyradonis)), Эдуард Баэр (Otis), Дьедонне (Caius Céplus), Мусс Диуф (Baba, la vigie des pirates)

О фильме:
Великая Клеопатра заключила пари с римским императором Юлием Цезарем о том, что ее подданные смогут всего за три месяца построить грандиозный дворец, превосходящий лучшие римские дворцы. Этой опасной чести был удостоен архитектор Нумернобис, которого — в случае неудачи — должны съесть крокодилы. Нумернобис вызывает на помощь своего старого друга — волшебника-друида Панарамикса с зельем, дарующим сверхъестественную силу. А веселые, находчивые Астерикс и Обеликс вместе с песиком Идеафиксом сопровождают друида в Египет, чтобы помешать проискам Цезаря, не желающего проигрывать Клеопатре.



Страна: Франция, Германия
Продолжительность: 01:48:01
Перевод: Профессиональный (дублированный)

Файл
Кодек: H.264
Качество: HDRip-AVC
Видео: 720x306, 24.000 fps, 1359kb/s
Звук: AAC-HE, 2ch, 72kbps
Субтитры: Русские

General
Unique ID : 186143214739668944491222596099120635004 (0x8C09E10E15A5209EBDF9401957451C7C)
Complete name : C:UsersПашаDownloadsАстерикс и Обеликс Миссия Клеопатра.mkv
Format : Matroska
Format version : Version 4
File size : 1.08 GiB
Duration : 1 h 48 min
Overall bit rate : 1 432 kb/s
Encoded date : UTC 2019-11-30 16:47:43
Writing application : mkvmerge v40.0.0 ('Old Town Road + Pony') 64-bit
Writing library : libebml v1.3.9 + libmatroska v1.5.2
Cover : Yes
Attachments : cover.jpg

Video
ID : 1
Format : AVC
Format/Info : Advanced Video Codec
Format profile : High@L4.1
Format settings : CABAC / 12 Ref Frames
Format settings, CABAC : Yes
Format settings, Reference : 12 frames
Codec ID : V_MPEG4/ISO/AVC
Duration : 1 h 48 min
Bit rate : 1 359 kb/s
Width : 720 pixels
Height : 306 pixels
Display aspect ratio : 2.35:1
Frame rate mode : Constant
Frame rate : 24.000 FPS
Color space : YUV
Chroma subsampling : 4:2:0
Bit depth : 8 bits
Scan type : Progressive
Bits/(Pixel*Frame) : 0.257
Stream size : 1.02 GiB (95%)
Title : Rip by donadar
Writing library : x264 core 130 r2273 b3065e6
Encoding settings : cabac=1 / ref=12 / deblock=1:-1:-1 / analyse=0x3:0x133 / me=umh / subme=10 / psy=1 / psy_rd=1.00:0.12 / mixed_ref=1 / me_range=32 / chroma_me=1 / trellis=2 / 8x8dct=1 / cqm=0 / deadzone=21,11 / fast_pskip=0 / chroma_qp_offset=-3 / threads=6 / lookahead_threads=1 / sliced_threads=0 / nr=0 / decimate=0 / interlaced=0 / bluray_compat=0 / constrained_intra=0 / bframes=10 / b_pyramid=2 / b_adapt=2 / b_bias=0 / direct=3 / weightb=1 / open_gop=0 / weightp=2 / keyint=250 / keyint_min=24 / scenecut=40 / intra_refresh=0 / rc_lookahead=50 / rc=2pass / mbtree=1 / bitrate=1359 / ratetol=1.0 / qcomp=0.60 / qpmin=0 / qpmax=69 / qpstep=4 / cplxblur=20.0 / qblur=0.5 / ip_ratio=1.40 / aq=2:1.00
Language : French
Default : Yes
Forced : No

Audio
ID : 2
Format : AAC LC SBR
Format/Info : Advanced Audio Codec Low Complexity with Spectral Band Replication
Commercial name : HE-AAC
Format settings : Explicit
Codec ID : A_AAC-2
Duration : 1 h 48 min
Bit rate : 72.0 kb/s
Channel(s) : 2 channels
Channel layout : L R
Sampling rate : 48.0 kHz
Frame rate : 23.438 FPS (2048 SPF)
Compression mode : Lossy
Delay relative to video : 31 ms
Stream size : 55.6 MiB (5%)
Language : Russian
Default : Yes
Forced : No

Text
ID : 3
Format : UTF-8
Codec ID : S_TEXT/UTF8
Codec ID/Info : UTF-8 Plain Text
Duration : 1 h 46 min
Bit rate : 106 b/s
Count of elements : 1313
Stream size : 82.7 KiB (0%)
Language : Russian
Default : Yes
Forced : No

Menu
00:00:00.000 : fr:(безымянный)
00:04:27.375 : fr:(безымянный)
00:09:58.291 : fr:(безымянный)
00:13:53.666 : fr:(безымянный)
00:19:14.125 : fr:(безымянный)
00:24:49.375 : fr:(безымянный)
00:31:04.083 : fr:(безымянный)
00:35:07.625 : fr:(безымянный)
00:38:57.833 : fr:(безымянный)
00:42:57.083 : fr:(безымянный)
00:46:00.625 : fr:(безымянный)
00:51:45.458 : fr:(безымянный)
00:58:06.375 : fr:(безымянный)
01:02:52.750 : fr:(безымянный)
01:08:53.458 : fr:(безымянный)
01:13:41.291 : fr:(безымянный)
01:18:28.791 : fr:(безымянный)
01:23:42.416 : fr:(безымянный)
01:30:48.833 : fr:(безымянный)
01:36:48.500 : fr:(безымянный)
01:40:47.125 : fr:(безымянный)
01:42:14.458 : fr:(безымянный)


Релиз от: donadar


_________________
Проголосуй за трекер Открытый торрент трекер - RUS-MEDIA.ORG

Проголосуй Открытый торрент трекер - RUS-MEDIA.ORG


Скачать книги и аудио книги через торрент


Вернуться к началу
 Профиль Отправить личное сообщение  
 
   Похожие торренты   Автор   Торрент   Размер 
В этой теме нет новых непрочитанных сообщений. Астерикс и тайное зелье / Astérix: Le secret de la potion magique [Мультфильм, фэнтези, 2018] HDRip, Dub [iTunes]

salma3

1133 | 30

1.46 ГБ

В этой теме нет новых непрочитанных сообщений. Астерикс и тайное зелье / Asterix: Le secret de la potion magique [Мультфильм, фэнтези, приключения, 2018] BDRip 1080p, Dub [iTunes]

salma3

0 | 1

7.22 ГБ

В этой теме нет новых непрочитанных сообщений. Астерикс и тайное зелье / Asterix: Le secret de la potion magique [Мультфильм, фэнтези, приключения, 2018] BDRemux 1080p, Dub [iTunes] [3D-Video]

salma3

3 | 1

21.7 ГБ

В этой теме нет новых непрочитанных сообщений. Миссия: невыполнима / Mission: Impossible [боевик, триллер, приключения, 1996] HDRip-AVC, Mvo

salma3

0 | 2

744.82 МБ

В этой теме нет новых непрочитанных сообщений. Астерикс на олимпийских играх / Asterix aux jeux olympiques [Комедия, приключения, семейный, 2008] BDRip 720p, Dub

NTL

2 | 0

4.36 ГБ

В этой теме нет новых непрочитанных сообщений. Миссия на Марс / Mission to Mars [антастика, триллер, драма, 2000] BDRip-AVC, Dub

salma3

0 | 0

2.18 ГБ

В этой теме нет новых непрочитанных сообщений. Миссия: невыполнима 2 / Mission: Impossible II [боевик, триллер, приключения, 2000] BDRip, Dub

salma3

0 | 0

1.44 ГБ


Начать новую тему Ответить на тему  [ 1 сообщение ] 




Для Мосгорсуда, Роскомнадзора и рекламодателей:: rstracker[собака]yandex.ru
cron