Торрент файл
скачать торрент магнет ссылка Добавлен: 30 ноя 2019, 21:33
Размер: 2.91 ГБ
Сидеров: 0
Личеров: 0
Статус: (salma3)
Автор

СообщениеДобавлено: 30 ноя 2019, 21:33 

Не в сети
Супермодератор
Аватара пользователя
Дата регистрации:
15 фев 2012, 16:44
Возраст: 32
Спасибо: 8325 / 2148
Сообщения: 97229
Год выхода: 2007
Жанр: триллер, драма, криминал
Режиссер: Питер Веббер

В ролях: Гаспар Ульель, Гун Ли, Рис Иванс, Доминик Уэст, Кевин МакКидд, Ингеборга Дапкунайте, Ричард Лиф, Ааран Томас, Хелена Лиа Тачовска, Мишель Вэйд

О фильме:
Первая глава жизни самого знаменитого и хитроумного маньяка всех времен… Ему было шесть, когда на его глазах жестоко убили его семью. В двадцать, бежав во Францию, а затем в США, он получил блестящее образование психиатра. Впереди его ждала жизнь, полная привилегий. Но жажда мести за убийство семьи только разгоралась в нем…



Страна: Великобритания, Чехия, Франция, Италия
Продолжительность: 01:56:04
Перевод: Профессиональный (полное дублирование)
Субтитры: Русские (full), английские (full)

Файл
Формат: Matroska
Качество: HDRip-AVC | Open Matte
Видео: 1022x574 at 25.00 fps, x264, ~3142 kbps, 0.214 bpp
Аудио: AC3, 6 ch, ~448 kbps - | Русский | -
Формат субтитров: softsub (SRT)

***Релиз от: -=DoMiNo=-

x264 [info]: frame I:1656 Avg QP:16.10 size: 91807
x264 [info]: frame P:37078 Avg QP:19.22 size: 30190
x264 [info]: frame B:135341 Avg QP:20.48 size: 10788
x264 [info]: consecutive B-frames: 2.0% 2.0% 6.7% 20.5% 18.7% 44.5% 3.1% 1.4% 0.6% 0.4%

General
Format : Matroska
Format version : Version 4
File size : 2.91 GiB
Duration : 1 h 56 min
Overall bit rate : 3 588 kb/s
Movie name : Ганнибал -Восхождение.(2007).HDRip-AVC.[-=DoMiNo=-]
Encoded date : UTC 2019-11-30 16:35:19
Writing application : mkvmerge v40.0.0 ('Old Town Road + Pony') 64-bit
Writing library : libebml v1.3.9 + libmatroska v1.5.2
Attachments : poster.jpg / poster 2.jpg

Video
ID : 1
Format : AVC
Format/Info : Advanced Video Codec
Format profile : High@L4.1
Format settings : CABAC / 10 Ref Frames
Format settings, CABAC : Yes
Format settings, Reference : 10 frames
Codec ID : V_MPEG4/ISO/AVC
Duration : 1 h 56 min
Bit rate : 3 142 kb/s
Width : 1 022 pixels
Height : 574 pixels
Display aspect ratio : 16:9
Frame rate mode : Constant
Frame rate : 25.000 FPS
Color space : YUV
Chroma subsampling : 4:2:0
Bit depth : 8 bits
Scan type : Progressive
Bits/(Pixel*Frame) : 0.214
Stream size : 2.54 GiB (87%)
Title : RIP_BY_-=DoMiNo=-
Writing library : x264 core 152 r2851kMod ba24899
Encoding settings : cabac=1 / ref=10 / deblock=1:-2:-2 / analyse=0x3:0x133 / me=umh / subme=11 / psy=1 / fade_compensate=0.00 / psy_rd=1.00:0.15 / mixed_ref=1 / me_range=32 / chroma_me=1 / trellis=2 / 8x8dct=1 / cqm=0 / deadzone=21,11 / fast_pskip=0 / chroma_qp_offset=-3 / threads=6 / lookahead_threads=1 / sliced_threads=0 / nr=0 / decimate=0 / interlaced=0 / bluray_compat=0 / constrained_intra=0 / bframes=9 / b_pyramid=2 / b_adapt=2 / b_bias=0 / direct=3 / weightb=1 / open_gop=0 / weightp=2 / keyint=250 / keyint_min=25 / scenecut=40 / intra_refresh=0 / rc_lookahead=40 / rc=2pass / mbtree=0 / bitrate=3142 / ratetol=1.0 / qcomp=0.60 / qpmin=0 / qpmax=69 / qpstep=4 / cplxblur=20.0 / qblur=0.5 / vbv_maxrate=50000 / vbv_bufsize=62500 / nal_hrd=none / filler=0 / ip_ratio=1.40 / pb_ratio=1.30 / aq=1:1.00
Language : English
Default : Yes
Forced : No

Audio
ID : 2
Format : AC-3
Format/Info : Audio Coding 3
Commercial name : Dolby Digital
Codec ID : A_AC3
Duration : 1 h 56 min
Bit rate mode : Constant
Bit rate : 448 kb/s
Channel(s) : 6 channels
Channel layout : L R C LFE Ls Rs
Sampling rate : 48.0 kHz
Frame rate : 31.250 FPS (1536 SPF)
Compression mode : Lossy
Stream size : 372 MiB (12%)
Title : DUB
Language : Russian
Service kind : Complete Main
Default : Yes
Forced : No

Text #1
ID : 3
Format : UTF-8
Codec ID : S_TEXT/UTF8
Codec ID/Info : UTF-8 Plain Text
Duration : 1 h 47 min
Bit rate : 48 b/s
Count of elements : 759
Stream size : 38.0 KiB (0%)
Language : Russian
Default : No
Forced : No

Text #2
ID : 4
Format : UTF-8
Codec ID : S_TEXT/UTF8
Codec ID/Info : UTF-8 Plain Text
Duration : 1 h 47 min
Bit rate : 25 b/s
Count of elements : 721
Stream size : 20.3 KiB (0%)
Language : English
Default : No
Forced : No

Menu
00:00:00.000 : :Глава 01
00:07:30.000 : :Глава 02
00:15:00.000 : :Глава 03
00:22:30.000 : :Глава 04
00:30:00.000 : :Глава 05
00:37:30.000 : :Глава 06
00:45:00.000 : :Глава 07
00:52:30.000 : :Глава 08
01:00:00.000 : :Глава 09
01:07:30.000 : :Глава 10
01:15:00.000 : :Глава 11
01:22:30.000 : :Глава 12
01:30:00.000 : :Глава 13
01:37:30.000 : :Глава 14
01:45:00.000 : :Глава 15
01:52:30.000 : :Глава 16


_________________
Проголосуй за трекер Открытый торрент трекер - RUS-MEDIA.ORG

Проголосуй Открытый торрент трекер - RUS-MEDIA.ORG


Вернуться к началу
 Профиль Отправить личное сообщение  
 
   Похожие торренты   Автор   Торрент   Размер 
В этой теме нет новых непрочитанных сообщений. Ганнибал: Восхождение / Hannibal Rising [триллер, драма, криминал, 2007] BDRip 1080p, Dub [Театральная версия] [Open Matte]

salma3

4 | 0

9.36 ГБ

В этой теме нет новых непрочитанных сообщений. Форсаж 5 / Fast Five [Боевик, триллер, драма, 2011] HybridRip-AVC, Dub [Open Matte] [Театральная версия]

salma3

0 | 0

2.91 ГБ

В этой теме нет новых непрочитанных сообщений. Перевозчик 2 / Transporter 2 [боевик, триллер, криминал, 2005] WEB-DLRip, Dub [Театральная версия] [Open Matte]

salma3

0 | 0

1.46 ГБ

В этой теме нет новых непрочитанных сообщений. Форсаж 6 / Furious 6 [боевик, триллер, криминал, 2013] WEB-DLRip 720p, Dub [Open Matte] [Театральная версия]

salma3

0 | 0

5.3 ГБ

В этой теме нет новых непрочитанных сообщений. Забирая жизни / Taking Lives [триллер, детектив, 2004] WEBRip, Dub [Театральная версия] [Open Matte]

salma3

0 | 0

1.45 ГБ

В этой теме нет новых непрочитанных сообщений. Кинг Конг / King Kong [боевик, драма, приключения, 2005] WEB-DL 1080p, Dub [Театральная версия] [Open Matte]

salma3

2 | 14

18.72 ГБ

В этой теме нет новых непрочитанных сообщений. Драйв (Непобедимый) / Drive [Фантастика, Боевик, Приключения, 1997] WEB-DL 1080p, Dub [Театральная версия] [Open Matte]

salma3

0 | 0

4.56 ГБ


Начать новую тему Ответить на тему  [ 1 сообщение ] 




Для Мосгорсуда, Роскомнадзора и рекламодателей:: rstracker[собака]yandex.ru
cron