Торрент файл
скачать торрент магнет ссылка Добавлен: 20 ноя 2019, 13:19
Размер: 743.55 МБ
Сидеров: 0
Личеров: 0
Статус: (salma3)
Автор

СообщениеДобавлено: 20 ноя 2019, 13:19 

В сети
Супермодератор
Аватара пользователя
Дата регистрации:
15 фев 2012, 16:44
Возраст: 30
Спасибо: 8131 / 2147
Сообщения: 94787
Год выпуска: 2018
Жанр: Приключения, комедия, семейный
Режиссер: Кирк Харрис

В ролях: Лола Султан, Логан Аллен, Кевин Сорбо, Стелио Саванте, Шон Майкл Глория, Патрик Малдун, Дахлия Леголт, Сэм Сорбо

О фильме:
Одиннадцатилетний Кевин и его младшая сестренка Холли живут на побережье Флориды, обожают исследовать подводный мир и часто играют с их другом - дельфином Берни и его семьей. Но однажды Берни пропадает, и во время его поисков дети случайно узнают об ужасных планах местного бизнесмена Уинстона Миллса: на месте их любимого пляжа он хочет построить химический завод, что несет огромную угрозу для всех морских обитателей, живущих в этих краях. Теперь героям предстоит разработать план, чтобы спасти пляж и помочь Берни вернуться к семье.



Страна: Канада
Продолжительность: 01:27:52
Перевод: Дублированный [iTunes]

Файл
Формат: MKV
Качество: BDRip-AVC
Видео: 720x306 (2.35:1), 23.976 fps, x264 ~1120 kbps avg, 0.212 bit/pixel
Звук: 48 kHz, HE-AAC, 2 ch, ~64 kbps avg | RUS
Субтитры: Английские

General
Unique ID : 52582177023298431148935742240621453984 (0x278EF57C3DCFBBCF85B175A344C1E2A0)
Complete name : D:OlLanDGroupiTunesBernie.The.Dolphin.2018.BDRip(AVC).745Mb.OlLanDGroup.mkv
Format : Matroska
Format version : Version 4
File size : 744 MiB
Duration : 1 h 27 min
Overall bit rate : 1 183 kb/s
Movie name : Bernie.The.Dolphin.2018.BDRip(AVC).745Mb.OlLanDGroup#Skandar#
Encoded date : UTC 2019-11-20 07:41:59
Writing application : mkvmerge v31.0.0 ('Dolores In A Shoestand') 64-bit
Writing library : libebml v1.3.6 + libmatroska v1.4.9

Video
ID : 1
Format : AVC
Format/Info : Advanced Video Codec
Format profile : High@L4.1
Format settings : CABAC / 10 Ref Frames
Format settings, CABAC : Yes
Format settings, ReFrames : 10 frames
Codec ID : V_MPEG4/ISO/AVC
Duration : 1 h 27 min
Bit rate : 1 120 kb/s
Width : 720 pixels
Height : 306 pixels
Display aspect ratio : 2.35:1
Frame rate mode : Constant
Frame rate : 23.976 (24000/1001) FPS
Color space : YUV
Chroma subsampling : 4:2:0
Bit depth : 8 bits
Scan type : Progressive
Bits/(Pixel*Frame) : 0.212
Stream size : 702 MiB (94%)
Title : Bernie.The.Dolphin.2018.BDRip(AVC).745Mb.OlLanDGroup#Skandar#
Writing library : x264 core 146 r2538 121396c
Encoding settings : cabac=1 / ref=10 / deblock=1:-3:-3 / analyse=0x3:0x133 / me=umh / subme=11 / psy=1 / psy_rd=0.97:0.05 / mixed_ref=1 / me_range=48 / chroma_me=1 / trellis=2 / 8x8dct=1 / cqm=0 / deadzone=21,11 / fast_pskip=0 / chroma_qp_offset=-3 / threads=6 / lookahead_threads=1 / sliced_threads=0 / nr=0 / decimate=0 / interlaced=0 / bluray_compat=0 / constrained_intra=0 / bframes=11 / b_pyramid=2 / b_adapt=2 / b_bias=0 / direct=3 / weightb=1 / open_gop=0 / weightp=2 / keyint=240 / keyint_min=23 / scenecut=40 / intra_refresh=0 / rc_lookahead=40 / rc=2pass / mbtree=0 / bitrate=1120 / ratetol=1.0 / qcomp=0.60 / qpmin=0 / qpmax=69 / qpstep=4 / cplxblur=20.0 / qblur=0.5 / vbv_maxrate=50000 / vbv_bufsize=62500 / nal_hrd=none / filler=0 / ip_ratio=1.40 / pb_ratio=1.30 / aq=1:1.00
Language : English
Default : Yes
Forced : No

Audio
ID : 2
Format : AAC LC SBR
Format/Info : Advanced Audio Codec Low Complexity with Spectral Band Replication
Commercial name : HE-AAC
Format settings : Explicit
Codec ID : A_AAC-2
Duration : 1 h 27 min
Bit rate : 64.0 kb/s
Channel(s) : 2 channels
Channel layout : L R
Sampling rate : 48.0 kHz
Frame rate : 23.438 FPS (2048 SPF)
Compression mode : Lossy
Delay relative to video : 31 ms
Stream size : 40.2 MiB (5%)
Title : DUB (iTunes)
Language : Russian
Default : Yes
Forced : No

Text
ID : 3
Format : UTF-8
Codec ID : S_TEXT/UTF8
Codec ID/Info : UTF-8 Plain Text
Duration : 12 s 262 ms
Bit rate : 58 b/s
Count of elements : 2
Stream size : 90.0 Bytes (0%)
Language : English
Default : No
Forced : No

Menu
00:00:00.000 : en:Chapter 1
00:02:34.905 : en:Chapter 2
00:12:10.396 : en:Chapter 3
00:23:06.510 : en:Chapter 4
00:29:23.845 : en:Chapter 5
00:34:18.556 : en:Chapter 6
00:42:55.948 : en:Chapter 7
00:49:51.071 : en:Chapter 8
00:54:52.998 : en:Chapter 9
01:03:44.779 : en:Chapter 10
01:13:40.249 : en:Chapter 11
01:22:08.006 : en:Chapter 12




Релиз от:


_________________
Проголосуй за трекер Открытый торрент трекер - RUS-MEDIA.ORG

Проголосуй Открытый торрент трекер - RUS-MEDIA.ORG


Скачать книги и аудио книги через торрент


Вернуться к началу
 Профиль Отправить личное сообщение  
 
   Похожие торренты   Автор   Торрент   Размер 
В этой теме нет новых непрочитанных сообщений. Дельфин Берни / Bernie The Dolphin [Приключения, комедия, семейный, 2018] BDRip, Dub [iTunes]

salma3

0 | 0

1.42 ГБ

В этой теме нет новых непрочитанных сообщений. Дельфин Берни / Bernie The Dolphin [Приключения, комедия, семейный, 2018] BDRip 1080p, Dub [iTunes]

salma3

0 | 0

7.21 ГБ

В этой теме нет новых непрочитанных сообщений. Уик-энд у Берни / Weekend at Bernie's [Комедия, криминал, приключения, 1989] BDRip-AVC, Mvo

salma3

0 | 0

745.9 МБ

В этой теме нет новых непрочитанных сообщений. Мой друг дельфин Эхо / Dolphin Kick [Приключения, семейный, 2019] WEB-DL 1080p, Dub

salma3

0 | 0

3.7 ГБ

В этой теме нет новых непрочитанных сообщений. Уик-энд у Берни / Weekend at Bernie's [комедия, криминал, приключения, 1989] HDRip-AVC, Mvo

salma3

100 | 27

1.45 ГБ

В этой теме нет новых непрочитанных сообщений. Уик-энд у Берни / Weekend at Bernie's [комедия, криминал, приключения, 1989] BDRip 720p, Mvo+Avo+Sub

salma3

0 | 0

4.92 ГБ

В этой теме нет новых непрочитанных сообщений. Уик-энд у Берни 2 / Weekend at Bernie's II [Комедия, фэнтези, 1993] WEBRip-AVC, Avo

salma3

3 | 0

745.21 МБ


Начать новую тему Ответить на тему  [ 1 сообщение ] 




Для Мосгорсуда, Роскомнадзора и рекламодателей:: mosgorsud-torrent[собачка]yandex.ru
cron