Торрент файл
скачать торрент магнет ссылка Добавлен: 19 ноя 2019, 12:32
Размер: 1.49 ГБ
Сидеров: 255
Личеров: 9
Статус: (salma3)
Автор

СообщениеДобавлено: 19 ноя 2019, 12:32 

Не в сети
Супермодератор
Аватара пользователя
Дата регистрации:
15 фев 2012, 16:44
Возраст: 30
Спасибо: 8131 / 2147
Сообщения: 94828
Год выпуска: 2019
Жанр: боевик, фантастика
Режиссер: Энг Ли

В ролях: Уилл Смит, Мэри Элизабет Уинстэд, Клайв Оуэн, Бенедикт Вонг, Дуглас Ходж, Ральф Браун, Линда Эмонд, Илья Волох, Э.Дж. Бонилья, Виктор Хьюго, Дэвид Моретти, Теодора Вулли, Диего Адонье, Лилла Банак, Игорь Сас, Алекса Дьёрдь, Фернанда Дороги

Описание: Первоклассный киллер Генри Броган становится мишенью таинственного оперативника, который, кажется, знает наперёд каждый его шаг...



Страна: США
Продолжительность: 01:46:43
Перевод: Профессиональный (дублированный) [чистый звук]

Качество: WEBRip
Видео: 720x384 (1.85:1), 23.976 fps, XviD ~1 759 kbps avg
Аудио: 44.1 kHz, MPEG Layer 3, 2 ch, ~224 kbps avg
Субтитры: корейские (hardsub) / неотключаемые



General
Complete name : Gemini.Man.2019.D.WEBRip-Effx.avi
Format : AVI
Format/Info : Audio Video Interleave
Format profile : OpenDML
File size : 1.49 GiB
Duration : 1 h 46 min
Overall bit rate : 1 997 kb/s
Movie name : Gemini.Man.2019.D.HDTVRip.14OOMB
Recorded date : 2019-11-17
Writing application : msl

Video
ID : 0
Format : MPEG-4 Visual
Format profile : Advanced Simple@L5
Format settings, BVOP : No
Format settings, QPel : No
Format settings, GMC : No warppoints
Format settings, Matrix : Default (H.263)
Codec ID : XVID
Codec ID/Hint : XviD
Duration : 1 h 46 min
Bit rate : 1 759 kb/s
Width : 720 pixels
Height : 384 pixels
Display aspect ratio : 1.85:1
Frame rate : 23.976 (24000/1001) FPS
Color space : YUV
Chroma subsampling : 4:2:0
Bit depth : 8 bits
Scan type : Progressive
Compression mode : Lossy
Bits/(Pixel*Frame) : 0.265
Stream size : 1.31 GiB (88%)
Writing library : XviD 1.2.1 (UTC 2008-12-04)

Audio
ID : 1
Format : MPEG Audio
Format version : Version 1
Format profile : Layer 3
Format settings : Joint stereo / MS Stereo
Codec ID : 55
Codec ID/Hint : MP3
Duration : 1 h 46 min
Bit rate mode : Constant
Bit rate : 224 kb/s
Channel(s) : 2 channels
Sampling rate : 44.1 kHz
Compression mode : Lossy
Stream size : 171 MiB (11%)
Alignment : Split across interleaves
Interleave, duration : 26 ms (0.63 video frame)

Релиз от: Effx


_________________
Проголосуй за трекер Открытый торрент трекер - RUS-MEDIA.ORG

Проголосуй Открытый торрент трекер - RUS-MEDIA.ORG


Скачать книги и аудио книги через торрент


Вернуться к началу
 Профиль Отправить личное сообщение  
 
   Похожие торренты   Автор   Торрент   Размер 
В этой теме нет новых непрочитанных сообщений. Гемини / Gemini Man [Боевик, Фантастика, 2019] WEBRip 1080p, Dub [чистый звук]

salma3

719 | 177

4.84 ГБ

В этой теме нет новых непрочитанных сообщений. Гемини / Gemini Man [боевик, триллер, фантастика, драма, 2019] TeleSynch, MVO

K15

1288 | 103

1.37 ГБ

В этой теме нет новых непрочитанных сообщений. Человек-паук: Вдали от дома / Spider-Man: Far from Home [Фантастика, Боевик, Приключения, 2019] WEB-DLRip, Dub [Чистый звук]

K15

5391 | 531

1.37 ГБ

В этой теме нет новых непрочитанных сообщений. Гадкий я 3 / Despicable Me 3 [мультфильм, фантастика, боевик, 2017] WEBRip 1080р, Dub [чистый звук]

salma3

11108 | 4130

3.33 ГБ

В этой теме нет новых непрочитанных сообщений. Анна / Anna [боевик, триллер, 2019] WEB-DLRip, Dub | Чистый звук

K15

1023 | 118

1.37 ГБ

В этой теме нет новых непрочитанных сообщений. Шазам! / Shazam! [фэнтези, боевик, комедия, приключения, 2019] HDTVRip, Dub | [Чистый звук]

NTL

0 | 91

2.05 ГБ

В этой теме нет новых непрочитанных сообщений. Человек-паук: Вдали от дома / Людина-Павук: Далеко від дому / Spider-Man: Far From Home [Фантастика, боевик, приключения, 2019] WEBRip 1080p, Dub [Line] [UKR]

salma3

638 | 109

4.45 ГБ


Начать новую тему Ответить на тему  [ 1 сообщение ] 




Для Мосгорсуда, Роскомнадзора и рекламодателей:: mosgorsud-torrent[собачка]yandex.ru
cron