Торрент файл
скачать торрент магнет ссылка Добавлен: 19 ноя 2019, 12:28
Размер: 2.18 ГБ
Сидеров: 0
Личеров: 0
Статус: (salma3)
Автор

СообщениеДобавлено: 19 ноя 2019, 12:28 

В сети
Супермодератор
Аватара пользователя
Дата регистрации:
15 фев 2012, 16:44
Возраст: 30
Спасибо: 8131 / 2147
Сообщения: 94786
Год выхода: 1986
Жанр: боевик, приключения, фантастика
Режиссер: Бретт Пайпер

В ролях: Мэтт Митлер, Денис Кауорд, Joe Gentissi, Bill MacGlaughlin, Saunder Finard, Хелен Мишель Мартин, Робин Ловетт, Марк Дешайе, Карл Веббер, Кевин Гарднер

О фильме:
Космический угонщик Гарри Трент теряет управление над похищенным кораблём и, неотвратимо удаляясь от Земли, становится свидетелем прибытия инопланетного военного флота. Годы спустя траектория движения корабля приводит его обратно, и герой обнаруживает родную планету порабощённой.



Страна: США
Продолжительность: 01:40:40
Перевод: Профессиональный (многоголосый закадровый) с VHS + вставки den904
Субтитры: Русские (koto2008), английские (Full + SDH)
Релиз от: Охрана (NNMCLUB)

Файл
Качество: BDRip-AVC
Видео: AVC/H.264, 1024x552, ~2719 Kbps
Аудио 1: AC3, 2 ch, 192 Kbps, 48.0 kHz – Русский
Аудио 2: AC3, 1 ch, 192 Kbps, 48.0 kHz – Английский
Общее
Уникальный идентификатор : 232755926965326072737263398313340122126 (0xAF1B2933DCDE3156A85738BD66F7340E)
Полное имя : B:DownloadsБитва за потерянную планету. 1986. NNMCLUB.mkv
Формат : Matroska
Версия формата : Version 4 / Version 2
Размер файла : 2,18 Гбайт
Продолжительность : 1 ч. 40 м.
Общий поток : 3105 Кбит/сек
Дата кодирования : UTC 2019-11-10 22:15:14
Программа кодирования : mkvmerge v7.9.0 ('Birds') 64bit
Библиотека кодирования : libebml v1.3.1 + libmatroska v1.4.2

Видео
Идентификатор : 1
Формат : AVC
Формат/Информация : Advanced Video Codec
Профиль формата : High@L4.1
Настройки формата : CABAC / 12 Ref Frames
Параметр CABAC формата : Да
Параметр RefFrames формата : 12 кадров
Идентификатор кодека : V_MPEG4/ISO/AVC
Продолжительность : 1 ч. 40 м.
Битрейт : 2719 Кбит/сек
Ширина : 1024 пикселя
Высота : 552 пикселя
Соотношение сторон : 1,85:1
Режим частоты кадров : Постоянный
Частота кадров : 23,976 (24000/1001) кадра/сек
Цветовое пространство : YUV
Субдискретизация насыщенности : 4:2:0
Битовая глубина : 8 бит
Тип развёртки : Прогрессивная
Бит/(Пиксели*Кадры) : 0.201
Размер потока : 1,91 Гбайт (88%)
Заголовок : Galaxy
Библиотека кодирования : x264 core 146 r2538 121396c
Настройки программы : cabac=1 / ref=12 / deblock=1:-1:-1 / analyse=0x3:0x113 / me=umh / subme=10 / psy=1 / psy_rd=1.00:0.10 / mixed_ref=1 / me_range=32 / chroma_me=1 / trellis=2 / 8x8dct=1 / cqm=0 / deadzone=21,11 / fast_pskip=0 / chroma_qp_offset=-3 / threads=6 / lookahead_threads=1 / sliced_threads=0 / nr=0 / decimate=0 / interlaced=0 / bluray_compat=0 / constrained_intra=0 / bframes=7 / b_pyramid=2 / b_adapt=2 / b_bias=0 / direct=3 / weightb=1 / open_gop=0 / weightp=2 / keyint=250 / keyint_min=25 / scenecut=40 / intra_refresh=0 / rc_lookahead=60 / rc=2pass / mbtree=1 / bitrate=2719 / ratetol=1.0 / qcomp=0.60 / qpmin=0 / qpmax=69 / qpstep=4 / cplxblur=20.0 / qblur=0.5 / vbv_maxrate=14000 / vbv_bufsize=14000 / nal_hrd=none / filler=0 / ip_ratio=1.40 / aq=1:1.00
Язык : English
Default : Да
Forced : Нет

Аудио #1
Идентификатор : 2
Формат : AC-3
Формат/Информация : Audio Coding 3
Идентификатор кодека : A_AC3
Продолжительность : 1 ч. 40 м.
Вид битрейта : Постоянный
Битрейт : 192 Кбит/сек
Каналы : 2 канала
Расположение каналов : Front: L R
Частота : 48,0 КГц
Частота кадров : 31,250 кадров/сек (1536 SPF)
Битовая глубина : 16 бит
Метод сжатия : С потерями
Размер потока : 138 Мбайт (6%)
Заголовок : Многоголосый профессиональный
Язык : Russian
ServiceKind : Complete Main
Default : Да
Forced : Нет

Аудио #2
Идентификатор : 3
Формат : AC-3
Формат/Информация : Audio Coding 3
Идентификатор кодека : A_AC3
Продолжительность : 1 ч. 40 м.
Вид битрейта : Постоянный
Битрейт : 192 Кбит/сек
Каналы : 1 канал
Расположение каналов : Front: C
Частота : 48,0 КГц
Частота кадров : 31,250 кадров/сек (1536 SPF)
Битовая глубина : 16 бит
Метод сжатия : С потерями
Размер потока : 138 Мбайт (6%)
Заголовок : Английский
Язык : English
ServiceKind : Complete Main
Default : Нет
Forced : Нет

Текст #1
Идентификатор : 4
Формат : UTF-8
Идентификатор кодека : S_TEXT/UTF8
Идентификатор кодека/Информация : UTF-8 Plain Text
Продолжительность : 22 м. 18 с.
Битрейт : 30 бит/сек
ElementCount : 71
Размер потока : 4,93 Кбайт (0%)
Заголовок : Русский форс. (koto2008)
Язык : Russian
Default : Нет
Forced : Нет

Текст #2
Идентификатор : 5
Формат : UTF-8
Идентификатор кодека : S_TEXT/UTF8
Идентификатор кодека/Информация : UTF-8 Plain Text
Продолжительность : 1 ч. 38 м.
Битрейт : 57 бит/сек
ElementCount : 1538
Размер потока : 41,4 Кбайт (0%)
Заголовок : SRT
Язык : English
Default : Нет
Forced : Нет

Текст #3
Идентификатор : 6
Формат : UTF-8
Идентификатор кодека : S_TEXT/UTF8
Идентификатор кодека/Информация : UTF-8 Plain Text
Продолжительность : 1 ч. 40 м.
Битрейт : 62 бит/сек
ElementCount : 1768
Размер потока : 45,8 Кбайт (0%)
Заголовок : SDH
Язык : English
Default : Нет
Forced : Нет


_________________
Проголосуй за трекер Открытый торрент трекер - RUS-MEDIA.ORG

Проголосуй Открытый торрент трекер - RUS-MEDIA.ORG


Скачать книги и аудио книги через торрент


Вернуться к началу
 Профиль Отправить личное сообщение  
 
   Похожие торренты   Автор   Торрент   Размер 
В этой теме нет новых непрочитанных сообщений. Битва за потерянную планету / Battle for the Lost Planet / Galaxy [боевик, приключения, фантастика, 1986] BDRemux 1080р, Mvo

salma3

0 | 0

23.42 ГБ

В этой теме нет новых непрочитанных сообщений. Битва проклятых / Battle of the Damned [Фантастика, боевик, приключения, 2013] BDRip 1080p, Dvo

salma3

47 | 9

7.73 ГБ

В этой теме нет новых непрочитанных сообщений. Инопланетное вторжение: Битва за Лос-Анджелес / Battle: Los Angeles [Фантастика, боевик, 2011] BDRip-AVC, Dub

salma3

21 | 10

3.27 ГБ

В этой теме нет новых непрочитанных сообщений. В поисках Галактики / Galaxy Quest [Фантастика, комедия, приключения, 1999] BDRip-AVC, Mvo

salma3

299 | 46

746.01 МБ

В этой теме нет новых непрочитанных сообщений. Битва в Арденнах / Battle of the Bulge [военный, боевик, драма, 1965] BDRip, Mvo

salma3

0 | 0

2.18 ГБ

В этой теме нет новых непрочитанных сообщений. Инопланетное вторжение: Битва за Лос-Анджелес / Battle: Los Angeles [фантастика, боевик, триллер, 2011] BDRip 720p, Dub

salma3

0 | 0

4.93 ГБ

В этой теме нет новых непрочитанных сообщений. Бегство с планеты обезьян / Escape from the Planet of the Apes [фантастика, боевик, 1971] BDRip-AVC, Mvo+Sub

salma3

20 | 35

2.2 ГБ


Начать новую тему Ответить на тему  [ 1 сообщение ] 




Для Мосгорсуда, Роскомнадзора и рекламодателей:: mosgorsud-torrent[собачка]yandex.ru
cron