Торрент файл
скачать торрент магнет ссылка Добавлен: 17 ноя 2019, 21:50
Размер: 1.45 ГБ
Сидеров: 3
Личеров: 0
Статус: (salma3)
Автор

СообщениеДобавлено: 17 ноя 2019, 21:50 

Не в сети
Супермодератор
Аватара пользователя
Дата регистрации:
15 фев 2012, 16:44
Возраст: 30
Спасибо: 8131 / 2147
Сообщения: 94786
Год выпуска: 2009
Жанр: Триллер, драма, приключения
Режиссер: Ричард Харра

В ролях: Ивонн Страховски, Уилл Пэттон, Эйон Бэйли, Андреа Марселлус, Венди Вортингтон, Кристофер Суини, Соломон Луп, Эд Трэйси, Филип Салик

О фильме:
История молодой пары, которая во время своего медового месяца, теряется в каменистой пустыне, неподалеку от Гранд-Каньон. Ситуация в которую может попасть каждый. Чуть вглубь от цивилизации и мы уже беспомощны. Без телефонов, интернета и множества привычных вещей, нам кажется, что мы контролируем ситуацию, а оказавшись в дикой природе понимаем, что вовсе нет.



Страна: США
Продолжительность: 01:41:59
Перевод: Любительский (двухголосый, закадровый)
Субтитры: Английские (SDH)

Файл
Формат: Matroska
Качество: WEB-DLRip-AVC
Видео: 1008x420 at 23.976 fps, x264, ~1588 kbps, 0.156 bpp
Аудио: AC3, 6 ch, ~448 kbps - | Русский | -
Формат субтитров: softsub (SRT)

***Релиз от: -=DoMiNo=-

x264 [info]: frame I:1233 Avg QP:18.60 size: 54554
x264 [info]: frame P:36539 Avg QP:20.26 size: 17873
x264 [info]: frame B:108917 Avg QP:22.34 size: 4428
x264 [info]: consecutive B-frames: 3.7% 5.5% 8.2% 34.9% 14.1% 19.2% 7.6% 3.0% 2.1% 0.4% 0.7% 0.2% 0.5%

General
Unique ID : 45991293872934415008536063404917677401 (0x229999DB786032AD57BA0D45A1B45D59)
Complete name : D:КИНОСмотрелКаньон.(2009).WEB-DLRip-AVC.[-=DoMiNo=-].mkv
Format : Matroska
Format version : Version 4
File size : 1.45 GiB
Duration : 1 h 41 min
Overall bit rate : 2 036 kb/s
Movie name : Каньон.(2009).WEB-DLRip-AVC.[-=DoMiNo=-]
Encoded date : UTC 2019-11-17 15:06:07
Writing application : mkvmerge v40.0.0 ('Old Town Road + Pony') 64-bit
Writing library : libebml v1.3.9 + libmatroska v1.5.2
Attachments : poster.jpg / poster 2.jpg

Video
ID : 1
Format : AVC
Format/Info : Advanced Video Codec
Format profile : High@L4.1
Format settings : CABAC / 12 Ref Frames
Format settings, CABAC : Yes
Format settings, Reference : 12 frames
Codec ID : V_MPEG4/ISO/AVC
Duration : 1 h 41 min
Bit rate : 1 588 kb/s
Width : 1 008 pixels
Height : 420 pixels
Display aspect ratio : 2.40:1
Frame rate mode : Constant
Frame rate : 23.976 (24000/1001) FPS
Color space : YUV
Chroma subsampling : 4:2:0
Bit depth : 8 bits
Scan type : Progressive
Bits/(Pixel*Frame) : 0.156
Stream size : 1.13 GiB (78%)
Title : RIP_BY_-=DoMiNo=-
Writing library : x264 core 158 r2988 7817004
Encoding settings : cabac=1 / ref=12 / deblock=1:-3:-3 / analyse=0x3:0x133 / me=umh / subme=11 / psy=1 / psy_rd=1.00:0.15 / mixed_ref=1 / me_range=32 / chroma_me=1 / trellis=2 / 8x8dct=1 / cqm=0 / deadzone=21,11 / fast_pskip=0 / chroma_qp_offset=-3 / threads=6 / lookahead_threads=1 / sliced_threads=0 / nr=0 / decimate=0 / interlaced=0 / bluray_compat=0 / constrained_intra=0 / bframes=12 / b_pyramid=2 / b_adapt=2 / b_bias=0 / direct=3 / weightb=1 / open_gop=0 / weightp=2 / keyint=250 / keyint_min=23 / scenecut=40 / intra_refresh=0 / rc_lookahead=40 / rc=2pass / mbtree=0 / bitrate=1588 / ratetol=1.0 / qcomp=0.70 / qpmin=0 / qpmax=69 / qpstep=4 / cplxblur=20.0 / qblur=0.5 / vbv_maxrate=50000 / vbv_bufsize=62500 / nal_hrd=none / filler=0 / ip_ratio=1.40 / pb_ratio=1.30 / aq=3:0.80
Language : English
Default : Yes
Forced : No

Audio
ID : 2
Format : AC-3
Format/Info : Audio Coding 3
Commercial name : Dolby Digital
Codec ID : A_AC3
Duration : 1 h 41 min
Bit rate mode : Constant
Bit rate : 448 kb/s
Channel(s) : 6 channels
Channel layout : L R C LFE Ls Rs
Sampling rate : 48.0 kHz
Frame rate : 31.250 FPS (1536 SPF)
Compression mode : Lossy
Stream size : 327 MiB (22%)
Title : DVO
Language : Russian
Service kind : Complete Main
Default : Yes
Forced : No

Text
ID : 3
Format : UTF-8
Codec ID : S_TEXT/UTF8
Codec ID/Info : UTF-8 Plain Text
Duration : 1 h 36 min
Bit rate : 39 b/s
Count of elements : 999
Stream size : 27.5 KiB (0%)
Title : SDH
Language : English
Default : No
Forced : No

Menu
00:00:00.000 : :Глава 01
00:05:00.000 : :Глава 02
00:10:00.000 : :Глава 03
00:15:00.000 : :Глава 04
00:20:00.000 : :Глава 05
00:25:00.000 : :Глава 06
00:30:00.000 : :Глава 07
00:35:00.000 : :Глава 08
00:40:00.000 : :Глава 09
00:45:00.000 : :Глава 10
00:50:00.000 : :Глава 11
00:55:00.000 : :Глава 12
01:00:00.000 : :Глава 13
01:05:00.000 : :Глава 14
01:10:00.000 : :Глава 15
01:15:00.000 : :Глава 16
01:20:00.000 : :Глава 17
01:25:00.000 : :Глава 18
01:30:00.000 : :Глава 19
01:35:00.000 : :Глава 20
01:40:00.000 : :Глава 21


_________________
Проголосуй за трекер Открытый торрент трекер - RUS-MEDIA.ORG

Проголосуй Открытый торрент трекер - RUS-MEDIA.ORG


Скачать книги и аудио книги через торрент


Вернуться к началу
 Профиль Отправить личное сообщение  
 
   Похожие торренты   Автор   Торрент   Размер 
В этой теме нет новых непрочитанных сообщений. Каньон / The Canyon [Триллер, драма, приключения, 2009] WEB-DL 1080p, Dvo

salma3

0 | 0

8.22 ГБ

В этой теме нет новых непрочитанных сообщений. Каньон / The Canyon [триллер, 2009] DVDRip, Dvo

salma3

77 | 354

2.06 ГБ

В этой теме нет новых непрочитанных сообщений. Возвращение молодой Кристи Каньон / The Return of Teenage Christy Canyon / Teenage Christy Canyon Collection 2 (Alpha Blue Archives) [1984-2007 г., DVDRip]

Svoyak

1 | 1

2.05 ГБ

В этой теме нет новых непрочитанных сообщений. Могамбо / Mogambo [драма, мелодрама, приключения, 1953] WEB-DLRip-AVC, Dvo

salma3

0 | 0

2.56 ГБ

В этой теме нет новых непрочитанных сообщений. Ловец солнца / The Sunchaser [Драма, Криминал, Приключения, 1996] WEB-DLRip-AVC, Dvo

salma3

93 | 29

2.77 ГБ

В этой теме нет новых непрочитанных сообщений. Надувная кукла / Air Doll [Фантастика, драма, экранизация, 2009] WEB-DLRip-AVC, Dvo

salma3

49 | 25

2.35 ГБ

В этой теме нет новых непрочитанных сообщений. Энигма / Enigma [Триллер, драма, 1982] WEB-DLRip-AVC, Dvo

salma3

0 | 0

1.45 ГБ


Начать новую тему Ответить на тему  [ 1 сообщение ] 




Для Мосгорсуда, Роскомнадзора и рекламодателей:: mosgorsud-torrent[собачка]yandex.ru
cron