Торрент файл
скачать торрент магнет ссылка Добавлен: 16 ноя 2019, 21:23
Размер: 1.45 ГБ
Сидеров: 0
Личеров: 0
Статус: (salma3)
Автор

СообщениеДобавлено: 16 ноя 2019, 21:23 

В сети
Супермодератор
Аватара пользователя
Дата регистрации:
15 фев 2012, 16:44
Возраст: 30
Спасибо: 8131 / 2147
Сообщения: 94786
Год выхода: 1997
Жанр: Триллер, драма, криминал
Режиссер: Джон Ридли

В ролях: Дэвид Карузо, Келли Линч, Крис Нот, Стейси Дэш, Прюитт Тэйлор Винс, Ричард Кинд, Керк Бальц, Дженнифер Джостин, Марк Бун Джуниор, Джек Оренд, Трэйси Росс, Гарет Уильямс, Ричмонд Аркетт, Джек Уоллес, Том МакГауэн, Джон Спенсер

О фильме:
Парочка случайных подельников сумела провернуть дерзкую финансовую операцию. Жертвой злоумышленников стал небольшой ювелирный магазин. Оценив ситуацию, воры опустошили прилавок более чем на 250 тыс. долларов. На этом командные действия дали трещину и пути преступников разошлись. Джуд без колебаний захлопнула дверцу отъезжающего автомобиля, оставив Неда на растерзание полиции. Сбежав из тюрьмы, обманутый гангстер движим непоколебимым желанием мести. Бросив все силы на поиски бывшей напарницы, он вскоре достигает заветной цели.



Страна: США
Продолжительность: 01:36:29
Перевод: Профессиональный (многоголосый, закадровый) Первый канал
Субтитры: English

Файл
Формат: Matroska
Качество: WEB-DLRip-AVC
Видео: 1032x430 at 23.976 fps, x264, ~1960 kbps, 0.184 bpp
Аудио: 48 kHz, AC3, 2/0 (L,R) ch, ~192 kbps - | Русский | - MVO
Формат субтитров: softsub (SRT)

***Релиз от: -=DoMiNo=-

x264 [info]: frame I:1041 Avg QP:13.69 size: 66718
x264 [info]: frame P:28995 Avg QP:16.66 size: 21903
x264 [info]: frame B:108760 Avg QP:18.73 size: 6559
x264 [info]: consecutive B-frames: 2.0% 2.6% 6.9% 18.1% 15.1% 35.9% 8.4% 5.2% 5.0% 0.4% 0.2% 0.1% 0.1%

General
Format : Matroska
Format version : Version 4
File size : 1.45 GiB
Duration : 1 h 36 min
Overall bit rate : 2 154 kb/s
Movie name : Холод в сердце.(1997).WEB-DLRip-AVC.[-=DoMiNo=-]
Encoded date : UTC 2019-11-16 14:09:28
Writing application : mkvmerge v40.0.0 ('Old Town Road + Pony') 64-bit
Writing library : libebml v1.3.9 + libmatroska v1.5.2
Attachments : poster.jpg / poster 2.jpg

Video
ID : 1
Format : AVC
Format/Info : Advanced Video Codec
Format profile : High@L4.1
Format settings : CABAC / 12 Ref Frames
Format settings, CABAC : Yes
Format settings, Reference : 12 frames
Codec ID : V_MPEG4/ISO/AVC
Duration : 1 h 36 min
Bit rate : 1 960 kb/s
Width : 1 032 pixels
Height : 430 pixels
Display aspect ratio : 2.40:1
Frame rate mode : Constant
Frame rate : 23.976 (24000/1001) FPS
Color space : YUV
Chroma subsampling : 4:2:0
Bit depth : 8 bits
Scan type : Progressive
Bits/(Pixel*Frame) : 0.184
Stream size : 1.32 GiB (91%)
Title : RIP_BY_-=DoMiNo=-
Writing library : x264 core 158 r2988 7817004
Encoding settings : cabac=1 / ref=12 / deblock=1:-3:-3 / analyse=0x3:0x133 / me=umh / subme=11 / psy=1 / psy_rd=1.10:0.05 / mixed_ref=1 / me_range=32 / chroma_me=1 / trellis=2 / 8x8dct=1 / cqm=0 / deadzone=21,11 / fast_pskip=0 / chroma_qp_offset=-3 / threads=6 / lookahead_threads=1 / sliced_threads=0 / nr=0 / decimate=0 / interlaced=0 / bluray_compat=0 / constrained_intra=0 / bframes=12 / b_pyramid=2 / b_adapt=2 / b_bias=0 / direct=3 / weightb=1 / open_gop=0 / weightp=2 / keyint=250 / keyint_min=23 / scenecut=40 / intra_refresh=0 / rc_lookahead=40 / rc=2pass / mbtree=0 / bitrate=1960 / ratetol=1.0 / qcomp=0.65 / qpmin=0 / qpmax=69 / qpstep=4 / cplxblur=20.0 / qblur=0.5 / vbv_maxrate=50000 / vbv_bufsize=62500 / nal_hrd=none / filler=0 / ip_ratio=1.40 / pb_ratio=1.30 / aq=3:0.80
Language : English
Default : Yes
Forced : No

Audio
ID : 2
Format : AC-3
Format/Info : Audio Coding 3
Commercial name : Dolby Digital
Codec ID : A_AC3
Duration : 1 h 36 min
Bit rate mode : Constant
Bit rate : 192 kb/s
Channel(s) : 2 channels
Channel layout : L R
Sampling rate : 48.0 kHz
Frame rate : 31.250 FPS (1536 SPF)
Compression mode : Lossy
Stream size : 133 MiB (9%)
Title : MVO (Первый канал)
Language : Russian
Service kind : Complete Main
Default : Yes
Forced : No

Text
ID : 3
Format : UTF-8
Codec ID : S_TEXT/UTF8
Codec ID/Info : UTF-8 Plain Text
Duration : 1 h 32 min
Bit rate : 71 b/s
Count of elements : 1584
Stream size : 48.1 KiB (0%)
Language : English
Default : No
Forced : No

Menu
00:00:00.000 : :Глава 01
00:05:00.000 : :Глава 02
00:10:00.000 : :Глава 03
00:15:00.000 : :Глава 04
00:20:00.000 : :Глава 05
00:25:00.000 : :Глава 06
00:30:00.000 : :Глава 07
00:35:00.000 : :Глава 08
00:40:00.000 : :Глава 09
00:45:00.000 : :Глава 10
00:50:00.000 : :Глава 11
00:55:00.000 : :Глава 12
01:00:00.000 : :Глава 13
01:05:00.000 : :Глава 14
01:10:00.000 : :Глава 15
01:15:00.000 : :Глава 16
01:20:00.000 : :Глава 17
01:25:00.000 : :Глава 18
01:30:00.000 : :Глава 19
01:35:00.000 : :Глава 20


_________________
Проголосуй за трекер Открытый торрент трекер - RUS-MEDIA.ORG

Проголосуй Открытый торрент трекер - RUS-MEDIA.ORG


Скачать книги и аудио книги через торрент


Вернуться к началу
 Профиль Отправить личное сообщение  
 
   Похожие торренты   Автор   Торрент   Размер 
В этой теме нет новых непрочитанных сообщений. Холод в сердце / Холодные сердца / Cold Around the Heart [Триллер, драма, криминал, 1997] WEB-DL 1080p, Mvo

salma3

0 | 0

5.35 ГБ

В этой теме нет новых непрочитанных сообщений. Темное сердце / Dark Heart [01x01 из 06] [Драма, криминал, 2018] WEB-DLRip, Mvo [IdeaFilm]

salma3

0 | 0

611.96 МБ

В этой теме нет новых непрочитанных сообщений. Американское сердце / American Heart [драма, мелодрама, криминал, 1992] WEB-DLRip, Mvo [ТВЦ]

salma3

53 | 14

1.45 ГБ

В этой теме нет новых непрочитанных сообщений. Белый охотник, черное сердце / White Hunter Black Heart [драма, приключения, 1990] WEB-DLRip-AVC, Mvo

salma3

5 | 1

2.18 ГБ

В этой теме нет новых непрочитанных сообщений. Холод в июле / Cold in July [триллер, криминал, драма, 2014] BDRip, Dub

salma3

168 | 44

2.19 ГБ

В этой теме нет новых непрочитанных сообщений. Холод в июле / Cold in July [триллер, криминал, драма, 2014] BDRemux 1080p, Dub

salma3

0 | 0

28.82 ГБ

В этой теме нет новых непрочитанных сообщений. Плохое сердце Бастера / Buster's Mal Heart [Драма, мистика, триллер, 2016] WEB-DLRip, Avo

salma3

934 | 101

1.43 ГБ


Начать новую тему Ответить на тему  [ 1 сообщение ] 




Для Мосгорсуда, Роскомнадзора и рекламодателей:: mosgorsud-torrent[собачка]yandex.ru
cron