Торрент файл
скачать торрент магнет ссылка Добавлен: 15 ноя 2019, 12:03
Размер: 744.03 МБ
Сидеров: 0
Личеров: 0
Статус: (salma3)
Автор

СообщениеДобавлено: 15 ноя 2019, 12:03 

Не в сети
Супермодератор
Аватара пользователя
Дата регистрации:
15 фев 2012, 16:44
Возраст: 32
Спасибо: 8325 / 2148
Сообщения: 97229
Год выхода: 2019
Жанр: Фэнтези, драма, приключения
Режиссер: Аск Хассельбальх

В ролях: Ребекка Эмили Саттруп, Агнес Киттелсен, Якоб Офтебро, Эллан Хайд, Николас Бро, Сёрен Маллинг, Деян Чукич, Андерс Хове, Эбигейл Райс, Стина Экблад

О фильме: От своих родителей Дина унаследовала сверхъестественный дар — способность распознавать правду по первому взгляду на человека. Будучи ещё ребёнком, с помощью своего таланта она расследовала убийство целой королевской семьи.
В продолжении истории Дина встречает таинственного незнакомца, который называет себя Чёрным Мастером и пытается убедить девушку, что является её отцом. Она не верит ни единому его слову и всеми способами старается избегать встречи с ним. Но в скором времени Дина вынуждена просить помощи Чёрного Мастера, и они отправляются вместе в опасное путешествие, чтобы спасти Давина, брата девушки, и принца Нико от кровожадного Дракана.



Страна: Дания, Чехия
Продолжительность: 01:43:24
Перевод: Профессиональный (полное дублирование) | iTunes

Файл
Формат: AVI
Качество: WEB-DLRip
Видео: 688x288 (2.39:1), 24.000 fps, XviD build 50 ~868 kbps avg, 0.18 bit/pixel
Звук: 48 kHz, MPEG Layer 3, 2 ch, ~128.00 kbps avg

Общее
Полное имя : C:Skammerens.datter.II.Slangens.gave.2019.WEB-DLRip.740.mb.avi
Формат : AVI
Формат/Информация : Audio Video Interleave
Размер файла : 744 Мбайт
Продолжительность : 1 ч. 43 м.
Общий поток : 1006 Кбит/сек
Программа кодирования : VirtualDubMod 1.5.10.3 | (build 2550/release)
Библиотека кодирования : VirtualDubMod build 2550/release

Видео
Идентификатор : 0
Формат : MPEG-4 Visual
Профиль формата : Advanced Simple@L5
Параметр BVOP формата : 1
Параметр QPel формата : Нет
Параметр GMC формата : Без точки перехода
Параметр матрицы формата : Default (MPEG)
Идентификатор кодека : XVID
Идентификатор кодека/Подсказка : XviD
Продолжительность : 1 ч. 43 м.
Битрейт : 869 Кбит/сек
Ширина : 688 пикселей
Высота : 288 пикселей
Соотношение сторон : 2,40:1
Частота кадров : 24,000 кадра/сек
Цветовое пространство : YUV
Субдискретизация насыщенности : 4:2:0
Битовая глубина : 8 бит
Тип развёртки : Прогрессивная
Метод сжатия : С потерями
Бит/(Пиксели*Кадры) : 0.183
Размер потока : 642 Мбайт (86%)
Библиотека кодирования : XviD 1.2.1 (UTC 2008-12-04)

Аудио
Идентификатор : 1
Формат : MPEG Audio
Версия формата : Version 1
Профиль формата : Layer 3
Идентификатор кодека : 55
Идентификатор кодека/Подсказка : MP3
Продолжительность : 1 ч. 43 м.
Вид битрейта : Постоянный
Битрейт : 128 Кбит/сек
Каналы : 2 канала
Частота : 48,0 КГц
Метод сжатия : С потерями
Размер потока : 94,7 Мбайт (13%)
Выравнивание : Соединение по промежуткам
Продолжительность промежутка : 42 мс. (1,00 видеокадр)
Время предзагрузки промежутка : 504 мс.
Библиотека кодирования : LAME3.99r
Настройки программы : -m s -V 4 -q 2 -lowpass 17 -b 128



_________________
Проголосуй за трекер Открытый торрент трекер - RUS-MEDIA.ORG

Проголосуй Открытый торрент трекер - RUS-MEDIA.ORG


Вернуться к началу
 Профиль Отправить личное сообщение  
 
   Похожие торренты   Автор   Торрент   Размер 
В этой теме нет новых непрочитанных сообщений. Пробуждающая совесть 2: Дар змеи / Skammerens datter II: Slangens gave [Фэнтези, драма, приключения, 2019] WEB-DLRip, Dub [iTunes]

salma3

0 | 0

1.46 ГБ

В этой теме нет новых непрочитанных сообщений. Пробуждающая совесть 2: Дар змеи / Skammerens datter II: Slangens gave [Фэнтези, драма, приключения, 2019] WEB-DLRip-AVC, Dub [iTunes]

salma3

0 | 0

745.51 МБ

В этой теме нет новых непрочитанных сообщений. Пробуждающая совесть 2: Дар змеи / Skammerens datter II: Slangens gave [Фэнтези, драма, приключения, 2019] WEB-DL 1080p, Dub [iTunes]

salma3

0 | 0

3.59 ГБ

В этой теме нет новых непрочитанных сообщений. Пробуждающая совесть / Skammerens datter [Приключения, фэнтези, 2015] BDRip, Dub [iTunes]

salma3

835 | 64

1.46 ГБ

В этой теме нет новых непрочитанных сообщений. Малефисента: Владычица тьмы / Maleficent: Mistress of Evil [Фэнтези, приключения, семейный, 2019] WEB-DLRip Dub [iTunes]

salma3

1636 | 616

1.47 ГБ

В этой теме нет новых непрочитанных сообщений. Эбигейл [приключения, фэнтези, семейный, 2019] WEB-DLRip [iTunes]

salma3

497 | 11

1.46 ГБ

В этой теме нет новых непрочитанных сообщений. Райские холмы / Paradise Hills [Фэнтези, 2019] WEB-DLRip, Dub [iTunes]

salma3

18 | 10

1.46 ГБ


Начать новую тему Ответить на тему  [ 1 сообщение ] 




Для Мосгорсуда, Роскомнадзора и рекламодателей:: rstracker[собака]yandex.ru
cron