COVID-19 - Последняя информация о коронавирусе на сайте Минздрава




Торрент файл
скачать торрент магнет ссылка Добавлен: 12 ноя 2019, 02:13
Размер: 745.31 МБ
Сидеров: 0
Личеров: 0
Статус: (salma3)
Автор

СообщениеДобавлено: 12 ноя 2019, 02:13 

Не в сети
Супермодератор
Аватара пользователя
Дата регистрации:
15 фев 2012, 16:44
Возраст: 32
Спасибо: 8311 / 2148
Сообщения: 97175
Год выхода: 2005
Жанр: мелодрама, комедия, приключения
Режиссер: Рэндал Клайзер

В ролях: Аманда Байнс, Крис Кармак, Джонатан Беннетт, Джэми-Линн Сиглер, Сьюзэн Дюрден, Фред Уиллард, Джеки Лонг, Джои Керн, Лэнс Басс, Кэти Гриффин, Альфонсо Рибейро, Коннор Матеус, Сюзанн Кент, Калеб Муди,

О фильме:
Восемнадцатилетняя Дженни приходит в полный восторг, узнав, что ее любимая рок-звезда — Джейсон Мастерс, приехал отдыхать на тропический курорт, где она работает. Волею несчастного случая они вдвоем попадают на «необитаемый» остров, от которого, на самом деле, рукой подать до большой земли. Но Дженни сохраняет это в тайне. Однако, идиллия на острове длится недолго: «коварное» море выбрасывает новых претенденток на ее кумира!…



Страна: США
Продолжительность: 01:26:34
Перевод: Профессиональный (полное дублирование)

Файл
Кодек: H.264
Качество: BDRip-AVC
Видео: 760x410, 23.976 fps, 1 130 kb/s
Звук: AAC-HE, 2ch, 72kbps
Субтитры: Русские, английские

Video
ID : 1
Format : AVC
Format/Info : Advanced Video Codec
Format profile : High@L4.1
Format settings : CABAC / 12 Ref Frames
Format settings, CABAC : Yes
Format settings, Reference : 12 frames
Codec ID : V_MPEG4/ISO/AVC
Duration : 1 h 26 min
Bit rate : 1 130 kb/s
Width : 760 pixels
Height : 410 pixels
Display aspect ratio : 1.85:1
Frame rate mode : Constant
Frame rate : 23.976 (24000/1001) FPS
Color space : YUV
Chroma subsampling : 4:2:0
Bit depth : 8 bits
Scan type : Progressive
Bits/(Pixel*Frame) : 0.151
Stream size : 699 MiB (94%)
Title : Rip by donadar
Writing library : x264 core 152 r2851 ba24899
Encoding settings : cabac=1 / ref=12 / deblock=1:-3:-3 / analyse=0x3:0x133 / me=umh / subme=10 / psy=1 / psy_rd=1.00:0.13 / mixed_ref=1 / me_range=32 / chroma_me=1 / trellis=2 / 8x8dct=1 / cqm=0 / deadzone=21,11 / fast_pskip=0 / chroma_qp_offset=-3 / threads=6 / lookahead_threads=1 / sliced_threads=0 / nr=0 / decimate=0 / interlaced=0 / bluray_compat=0 / constrained_intra=0 / bframes=10 / b_pyramid=2 / b_adapt=2 / b_bias=0 / direct=3 / weightb=1 / open_gop=0 / weightp=2 / keyint=240 / keyint_min=23 / scenecut=40 / intra_refresh=0 / rc_lookahead=40 / rc=2pass / mbtree=1 / bitrate=1130 / ratetol=1.0 / qcomp=0.60 / qpmin=0 / qpmax=69 / qpstep=4 / cplxblur=20.0 / qblur=0.5 / ip_ratio=1.40 / aq=2:1.00
Language : English
Default : Yes
Forced : No

Audio
ID : 2
Format : AAC LC SBR
Format/Info : Advanced Audio Codec Low Complexity with Spectral Band Replication
Commercial name : HE-AAC
Format settings : Explicit
Codec ID : A_AAC-2
Duration : 1 h 26 min
Bit rate : 72.0 kb/s
Channel(s) : 2 channels
Channel layout : L R
Sampling rate : 48.0 kHz
Frame rate : 23.438 FPS (2048 SPF)
Compression mode : Lossy
Delay relative to video : 31 ms
Stream size : 44.6 MiB (6%)
Language : Russian
Default : Yes
Forced : No

Text #1
ID : 3
Format : UTF-8
Codec ID : S_TEXT/UTF8
Codec ID/Info : UTF-8 Plain Text
Duration : 1 h 20 min
Bit rate : 85 b/s
Count of elements : 726
Stream size : 50.2 KiB (0%)
Language : Russian
Default : Yes
Forced : No

Text #2
ID : 4
Format : UTF-8
Codec ID : S_TEXT/UTF8
Codec ID/Info : UTF-8 Plain Text
Duration : 1 h 21 min
Bit rate : 62 b/s
Count of elements : 1151
Stream size : 37.5 KiB (0%)
Language : English
Default : No
Forced : No

Menu
00:00:00.000 : en:00:00:00.000
00:04:36.359 : en:00:04:36.359
00:07:31.910 : en:00:07:31.910
00:15:33.558 : en:00:15:33.558
00:20:13.170 : en:00:20:13.170
00:22:53.581 : en:00:22:53.581
00:28:14.776 : en:00:28:14.776
00:30:47.596 : en:00:30:47.596
00:37:30.123 : en:00:37:30.123
00:43:02.705 : en:00:43:02.705
00:48:50.469 : en:00:48:50.469
01:01:11.918 : en:01:01:11.918
01:05:05.443 : en:01:05:05.443
01:09:23.785 : en:01:09:23.785
01:13:21.272 : en:01:13:21.272


Релиз от: donadar


_________________
Проголосуй за трекер Открытый торрент трекер - RUS-MEDIA.ORG

Проголосуй Открытый торрент трекер - RUS-MEDIA.ORG


Скачать книги и аудио книги через торрент


Вернуться к началу
 Профиль Отправить личное сообщение  
 
   Похожие торренты   Автор   Торрент   Размер 
В этой теме нет новых непрочитанных сообщений. К чёрту любовь! / Down with Love [Комедия, мелодрама, 2003] BDRip 1080p, Dub

salma3

0 | 0

8.69 ГБ

В этой теме нет новых непрочитанных сообщений. Любовь случается / Love Happens [комедия, мелодрама, 2009] BDRip 1080p, Dub [лицензия]

salma3

0 | 0

8.29 ГБ

В этой теме нет новых непрочитанных сообщений. Кукольная любовь / Toy Love [драма, мелодрама, комедия, 2002] DVDRip-AVC, Dvo

salma3

0 | 0

1.06 ГБ

В этой теме нет новых непрочитанных сообщений. Первая любовь / Hatsukoi / First Love [Криминал, мелодрама, боевик, 2019] WEB-DLRip-AVC, Dub [iTunes]

salma3

0 | 65

745.69 МБ

В этой теме нет новых непрочитанных сообщений. Любовь с риском для жизни / La chance de ma vie [Мелодрама, комедия, 2010] BDRip-AVC, Dub

salma3

0 | 0

744.5 МБ

В этой теме нет новых непрочитанных сообщений. Первая любовь / First Love / Hatsukoi [Криминал, мелодрама, боевик, 2019] BDRip, Dub [iTunes]

salma3

0 | 0

1.46 ГБ

В этой теме нет новых непрочитанных сообщений. Первая любовь / First Love / Hatsukoi [Криминал, мелодрама, боевик, 2019] BDRip 720p, Dub [iTunes]

salma3

0 | 0

5.2 ГБ


Начать новую тему Ответить на тему  [ 1 сообщение ] 




Для Мосгорсуда, Роскомнадзора и рекламодателей:: rstracker[собака]yandex.ru
cron