Торрент файл
скачать торрент магнет ссылка Добавлен: 11 ноя 2019, 12:49
Размер: 1.46 ГБ
Сидеров: 0
Личеров: 1
Статус: (salma3)
Автор

СообщениеДобавлено: 11 ноя 2019, 12:49 

Не в сети
Супермодератор
Аватара пользователя
Дата регистрации:
15 фев 2012, 16:44
Возраст: 32
Спасибо: 8320 / 2148
Сообщения: 97229
Год выхода: 1961
Жанр: Боевик, драма, комедия
Режиссер: Филипп де Брока

В ролях: Жан-Поль Бельмондо, Клаудия Кардинале, Джесс Хан, Марсель Далио, Жан Рошфор, Филип Лемар, Ноэль Роквер, Одиль Версуа, Жак Шарон, Люсьен Рэмбур, Жак Балютен, Пьер Реп, Жак Иллинг, Поль Пребуа, Рене Марлик, Рауль Бийре, Ален Декок, Энцо Черузико

О фильме:
Завоевав любовь прекрасной цыганки Венеры парижский разбойник 18-го века Доминик взял себе кличку «Картуш» и стал настоящим французским Робин Гудом.
Одинаково владея шпагой и языком, Картуш во главе организованной им банды «весельчаков» потрошит кошельки аристократов и раздает добычу беднякам, каждый раз ловко оставляя в дураках своего заклятого врага — начальника полиции Феруссака…



Страна: Франция, Италия
Продолжительность: 01:56:06
Перевод: Советский дубляж со вставками Екатеринбург Арт (на вырезанные фрагменты в Советском кинопрокате)

Файл
Качество: BDRip-AVC
Формат: MKV
Кодек: XviD
Видео: 1024x434 (2,35:1), 24 fps, MPEG-4 AVC ~ 1605 Кbps avg, 0.150 bit/pixel
Аудио: AC3, 48 kHz, 2 ch, ~192.00 kbps avg | русский | Советский дубляж

Общее
Уникальный идентификатор : 30012326440687839369935051723586851140 (0x169429F00F8598850902100EDB86D144)
Полное имя : G:Cartouche.1961.RUS.Blu.Ray.x264.mkv
Формат : Matroska
Версия формата : Version 4 / Version 2
Размер файла : 1,46 Гбайт
Продолжительность : 1 ч. 56 м.
Общий поток : 1799 Кбит/сек
Название фильма : Картуш / Cartouche (1962)
Дата кодирования : UTC 2019-11-11 04:50:21
Программа кодирования : mkvmerge v38.0.0 ('The Silent Type') 64-bit
Библиотека кодирования : libebml v1.3.9 + libmatroska v1.5.2
Обложка : Yes
Attachments : cover.jpg

Видео
Идентификатор : 1
Формат : AVC
Формат/Информация : Advanced Video Codec
Профиль формата : High@L4.1
Настройки формата : CABAC / 10 Ref Frames
Параметр CABAC формата : Да
Параметр RefFrames формата : 10 кадров
Идентификатор кодека : V_MPEG4/ISO/AVC
Продолжительность : 1 ч. 56 м.
Битрейт : 1605 Кбит/сек
Ширина : 1024 пикселя
Высота : 434 пикселя
Соотношение сторон : 2,35:1
Режим частоты кадров : Постоянный
Частота кадров : 24,000 кадра/сек
Цветовое пространство : YUV
Субдискретизация насыщенности : 4:2:0
Битовая глубина : 8 бит
Тип развёртки : Прогрессивная
Бит/(Пиксели*Кадры) : 0.150
Размер потока : 1,30 Гбайт (89%)
Заголовок : #stillet
Библиотека кодирования : x264 core 152 r2851bm ba24899
Настройки программы : cabac=1 / ref=10 / deblock=1:-3:-2 / analyse=0x3:0x133 / me=umh / subme=11 / psy=1 / psy_rd=1.00:0.15 / mixed_ref=1 / me_range=32 / chroma_me=1 / trellis=2 / 8x8dct=1 / cqm=0 / deadzone=21,11 / fast_pskip=0 / chroma_qp_offset=-3 / threads=8 / lookahead_threads=2 / sliced_threads=0 / nr=0 / decimate=0 / interlaced=0 / bluray_compat=0 / constrained_intra=0 / bframes=11 / b_pyramid=2 / b_adapt=2 / b_bias=0 / direct=3 / weightb=1 / open_gop=0 / weightp=2 / keyint=240 / keyint_min=24 / scenecut=40 / intra_refresh=0 / rc=2pass / mbtree=0 / bitrate=1605 / ratetol=1.0 / qcomp=0.60 / qpmin=0 / qpmax=69 / qpstep=4 / cplxblur=20.0 / qblur=0.5 / ip_ratio=1.40 / pb_ratio=1.30 / aq=1:1.00
Язык : English
Default : Да
Forced : Нет

Аудио
Идентификатор : 2
Формат : AC-3
Формат/Информация : Audio Coding 3
Идентификатор кодека : A_AC3
Продолжительность : 1 ч. 56 м.
Вид битрейта : Постоянный
Битрейт : 192 Кбит/сек
Каналы : 2 канала
Расположение каналов : Front: L R
Частота : 48,0 КГц
Частота кадров : 31,250 кадров/сек (1536 SPF)
Битовая глубина : 16 бит
Метод сжатия : С потерями
Размер потока : 159 Мбайт (11%)
Заголовок : Советский дубляж
Язык : Russian
Default : Да
Forced : Нет


_________________
Проголосуй за трекер Открытый торрент трекер - RUS-MEDIA.ORG

Проголосуй Открытый торрент трекер - RUS-MEDIA.ORG


Вернуться к началу
 Профиль Отправить личное сообщение  
 
   Похожие торренты   Автор   Торрент   Размер 
В этой теме нет новых непрочитанных сообщений. Картуш / Cartouche [Боевик, драма, комедия, 1962] BDRip, Dub

salma3

0 | 0

1.46 ГБ

В этой теме нет новых непрочитанных сообщений. Картуш / Cartouche [Боевик, драма, комедия, 1962] BDRip 1080p, Dub

salma3

0 | 0

10.42 ГБ

В этой теме нет новых непрочитанных сообщений. Картуш / Cartouche [боевик, комедия, приключения, 1962] BDRemux 1080р, Dub

salma3

0 | 0

31.14 ГБ

В этой теме нет новых непрочитанных сообщений. Доктор Ноу / Dr. No [боевик, триллер, приключения, 1962] BDRip-HEVC 1080p, Dub [50th Anniversary Edition]

salma3

0 | 0

9.86 ГБ

В этой теме нет новых непрочитанных сообщений. Охота / The Hunt [Боевик, комедия, триллер, 2020] BDRip-AVC, Dub [Лицензия]

salma3

2 | 0

2.89 ГБ

В этой теме нет новых непрочитанных сообщений. Шазам! / Shazam! [Фэнтези, боевик, комедия, 2019] BDRip-AVC, Dub [Лицензия]

salma3

26 | 17

1.08 ГБ

В этой теме нет новых непрочитанных сообщений. Шазам! / Shazam! [Фэнтези, боевик, комедия, 2019] BDRip-AVC, Dub [Лицензия]

salma3

2 | 0

2.91 ГБ


Начать новую тему Ответить на тему  [ 1 сообщение ] 




Для Мосгорсуда, Роскомнадзора и рекламодателей:: rstracker[собака]yandex.ru
cron
cron