Торрент файл
скачать торрент магнет ссылка Добавлен: 08 ноя 2019, 17:49
Размер: 706.27 МБ
Сидеров: 2
Личеров: 3
Статус: (salma3)
Автор

СообщениеДобавлено: 08 ноя 2019, 17:49 

Не в сети
Супермодератор
Аватара пользователя
Дата регистрации:
15 фев 2012, 16:44
Возраст: 30
Спасибо: 8126 / 2147
Сообщения: 94336
Год выхода: 2019
Жанр: Комедия
Режиссер: Арно Лемор

В ролях: Кристиан Клавье, Матильда Сенье, Леопольд Бухсбаум, Пили Груан, Джои Старр, Оливье Маршаль, Фредерик Бель, Луи-До де Ланкесэ, Lola Aubrière, Marie de Dinechin

О фильме:
Консервативный доктор-ортопед Филипп пытается расположить к себе двух детей-подростков своей новой возлюбленной. Он решает провести вместе с ними семейный отпуск у моря, и молодежь выбирает Ибицу, где любителю тихого отдыха придется непросто.



Страна: Франция, Бельгия
Продолжительность: 01:26:03
Перевод: Дублированный (iTunes)

Файл
Формат: MKV
Качество: WEB-DLRip-AVC
Видео: x264, 788x330, 24.000 fps, ~1019 kbps avg, 0.163 bit/pixel
Аудио: AAC, 2 ch, ~128 kbps - | Русский | -

***Релиз от: -=DoMiNo=-

General
Format : Matroska
Format version : Version 4
File size : 706 MiB
Duration : 1 h 26 min
Overall bit rate : 1 147 kb/s
Movie name : Ибица (2019) WEB-DLRip-AVC
Encoded date : UTC 2019-11-08 09:09:38
Writing application : mkvmerge v39.0.0 ('In The Waiting Line') 64-bit
Writing library : libebml v1.3.9 + libmatroska v1.5.2
Attachments : poster.jpg / poster 2.jpg

Video
ID : 1
Format : AVC
Format/Info : Advanced Video Codec
Format profile : High@L4.1
Format settings : CABAC / 12 Ref Frames
Format settings, CABAC : Yes
Format settings, Reference : 12 frames
Codec ID : V_MPEG4/ISO/AVC
Duration : 1 h 26 min
Bit rate : 1 019 kb/s
Width : 788 pixels
Height : 330 pixels
Display aspect ratio : 2.40:1
Frame rate mode : Constant
Frame rate : 24.000 FPS
Color space : YUV
Chroma subsampling : 4:2:0
Bit depth : 8 bits
Scan type : Progressive
Bits/(Pixel*Frame) : 0.163
Stream size : 627 MiB (89%)
Title : Rip by ivanes
Writing library : x264 core 158 r2984+49 6932f4a t_mod_New [0-bit@all X86]
Encoding settings : cabac=1 / ref=12 / deblock=1:-3:-3 / analyse=0x3:0x113 / me=umh / subme=10 / psy=1 / fade_compensate=0.00 / psy_rd=1.00:0.00 / mixed_ref=1 / me_range=32 / chroma_me=1 / trellis=2 / 8x8dct=1 / cqm=0 / deadzone=21,11 / fast_pskip=0 / chroma_qp_offset=-2 / threads=12 / lookahead_threads=2 / sliced_threads=0 / nr=0 / decimate=1 / interlaced=0 / bluray_compat=0 / constrained_intra=0 / fgo=0 / bframes=12 / b_pyramid=2 / b_adapt=2 / b_bias=0 / direct=1 / weightb=1 / open_gop=0 / weightp=2 / keyint=240 / keyint_min=24 / scenecut=40 / intra_refresh=0 / rc_lookahead=60 / rc=2pass / mbtree=0 / bitrate=1019 / ratetol=1.0 / qcomp=0.60 / qpmin=0:0:0 / qpmax=69:69:69 / qpstep=4 / cplxblur=20.0 / qblur=0.5 / vbv_maxrate=50000 / vbv_bufsize=62500 / nal_hrd=none / filler=0 / ip_ratio=1.40 / pb_ratio=1.30 / aq=1:1.00 / aq-sensitivity=10.00 / aq-factor=1.00:1.00:1.00 / aq2=0 / aq3=0
Language : French
Default : Yes
Forced : No

Audio
ID : 2
Format : AAC LC SBR
Format/Info : Advanced Audio Codec Low Complexity with Spectral Band Replication
Commercial name : HE-AAC
Format settings : Explicit
Codec ID : A_AAC-2
Duration : 1 h 26 min
Bit rate : 127 kb/s
Channel(s) : 2 channels
Channel layout : L R
Sampling rate : 48.0 kHz
Frame rate : 23.438 FPS (2048 SPF)
Compression mode : Lossy
Stream size : 78.0 MiB (11%)
Title : iTunes
Language : Russian
Default : Yes
Forced : No

Menu
00:00:00.000 : :Глава 01
00:05:00.000 : :Глава 02
00:10:00.000 : :Глава 03
00:15:00.000 : :Глава 04
00:20:00.000 : :Глава 05
00:25:00.000 : :Глава 06
00:30:00.000 : :Глава 07
00:35:00.000 : :Глава 08
00:40:00.000 : :Глава 09
00:45:00.000 : :Глава 10
00:50:00.000 : :Глава 11
00:55:00.000 : :Глава 12
01:00:00.000 : :Глава 13
01:05:00.000 : :Глава 14
01:10:00.000 : :Глава 15
01:15:00.000 : :Глава 16
01:20:00.000 : :Глава 17
01:25:00.000 : :Глава 18


_________________
Проголосуй за трекер Открытый торрент трекер - RUS-MEDIA.ORG

Проголосуй Открытый торрент трекер - RUS-MEDIA.ORG


Скачать книги и аудио книги через торрент


Вернуться к началу
 Профиль Отправить личное сообщение  
 
   Похожие торренты   Автор   Торрент   Размер 
В этой теме нет новых непрочитанных сообщений. Ибица / Ibiza [комедия, 2019] WEB-DLRip, Dub [iTunes]

salma3

571 | 29

1.36 ГБ

В этой теме нет новых непрочитанных сообщений. Ибица / Ibiza [Мелодрама, комедия, 2018] WEB-DL 1080p, Dub [iTunes]

salma3

0 | 1

3.05 ГБ

В этой теме нет новых непрочитанных сообщений. Ибица / Ibiza [Мелодрама, комедия, 2018] WEB-DLRip, Mvo

salma3

248 | 105

1.46 ГБ

В этой теме нет новых непрочитанных сообщений. Ибица / Ibiza [Мелодрама, комедия, 2018] WEB-DL 1080p, Mvo

salma3

462 | 205

3.15 ГБ

В этой теме нет новых непрочитанных сообщений. Красивый бандит / A Clever Crook [Комедия, 2019] WEB-DLRip-AVC, Dub [iTunes]

salma3

0 | 0

1.73 ГБ

В этой теме нет новых непрочитанных сообщений. Танцуй сердцем / Let's Dance [Драма, комедия, музыка, 2019] WEB-DLRip-AVC, Dub [iTunes]

salma3

0 | 0

1.93 ГБ

В этой теме нет новых непрочитанных сообщений. Искусство обмана / Lying and Stealing [Комедия, криминал, 2019] WEB-DLRip-AVC, Dub [iTunes]

salma3

1 | 0

1.46 ГБ


Начать новую тему Ответить на тему  [ 1 сообщение ] 




Для Мосгорсуда, Роскомнадзора и рекламодателей:: mosgorsud-torrent[собачка]yandex.ru
cron