Торрент файл
скачать торрент магнет ссылка Добавлен: 25 май 2011, 02:12
Размер: 4.24 ГБ
Сидеров: 23
Личеров: 4
Автор

СообщениеДобавлено: 25 май 2011, 02:12 

Не в сети
Супермодератор
Аватара пользователя
Дата регистрации:
22 май 2010, 11:03
Возраст: 31
Спасибо: 7513 / 13
Сообщения: 49940
Сисси / Sissi

Перевод: Профессиональный (многоголосый, закадровый), cубтитры: отсутствуют
Формат: DVDRip-AVC, MKV, H.264, MP3
Страна: Австрия
Режиссер: Эрнст Маришка
Жанр: драма, мелодрама, комедия, история
Продолжительность: 01:41:17
Год выпуска: 1955

В ролях: Роми Шнайдер, Карлхайнц Бём, Магда Шнайдер, Ута Франц, Густав Кнут, Вильма Дегишер, Йозеф Майнрад, Ерих Никовитц, Карл Фохлер, Франц Бёхайм

Описание: Юная Сисси — дочь герцога Макса Баварского — простая скромная девушка. Она сторонится шумных светских развлечений, бегает по лесам, ухаживает за животными, наслаждается природой и мечтает о любви.
Случайно познакомившись в лесу с красивым молодым офицером, она чувствует, что встретила мужчину своей мечты. Да и офицер не на шутку увлечен девушкой, хотя и считает ее простой крестьянкой. Каково же изумление обоих, когда на балу ему представляют младшую дочь герцога Максимилиана, а ей — австрийского императора Франца-Иосифа.
К несчастью для влюбленных, властная мать Франца-Иосифа, эрцгерцогиня Софи уже выбрала супругу своему сыну — принцессу Хелену, старшую сестру Сисси… Несмотря ни на что, император готов впервые пойти против воли матери и объявить Сисси своей невестой…




Видео: 720 x 536 (1.343), 25.000 fps, V_MPEG4/ISO/AVC, Baseline@L1.3, ~ 1 814 Kbps Kbps, 0.188 bit/pixel
Аудио: 44.100 kHz, MPEG Layer 3, 2 ch, ~128.00 kbps avg

General
Unique ID: 168348648403719580577546155723716462494 (0x7EA6C532C2870C1E037BA147C20E879E)
Complete name: E:\РЕЛИЗЫ\Все релизы 14\sissi_[tfile.ru]\sissi_[tfile.ru].mkv
Format: Matroska
File size: 1.40 GiB
Duration: 1h 41mn
Overall bit rate: 1 981 Kbps
Writing application: Lavf51.12.1
Writing library: Lavf51.12.1

Video
ID: 1
Format: AVC
Format/Info: Advanced Video Codec
Format profile: Baseline@L1.3
Format settings, CABAC: No
Format settings, ReFrames: 1 frame
Codec ID: V_MPEG4/ISO/AVC
Duration: 1h 41mn
Bit rate: 1 814 Kbps
Width: 720 pixels
Height: 536 pixels
Display aspect ratio: 4:3
Frame rate: 25.000 fps
Color space: YUV
Chroma subsampling: 4:2:0
Bit depth: 8 bits
Scan type: Progressive
Bits/(Pixel*Frame): 0.188
Stream size: 1.28 GiB (92%)
Language: English / English

Audio
ID: 2
Format: MPEG Audio
Format version: Version 1
Format profile: Layer 3
Mode: Joint stereo
Mode extension: MS Stereo
Codec ID: A_MPEG/L3
Codec ID/Hint: MP3
Duration: 1h 41mn
Bit rate mode: Constant
Bit rate: 128 Kbps
Channel(s): 2 channels
Sampling rate: 44.1 KHz
Compression mode: Lossy
Stream size: 92.7 MiB (6%)
Writing library: LAME3.97ЄЄЄЄЄЄЄЄЄЄЄЄ
Language: English / Russian





























Сисси - молодая императрица / Sissi - Die junge Kaiserin

Перевод: Профессиональный (многоголосый, закадровый), cубтитры: отсутствуют
Формат: DVDRip-AVC, MKV, H.264, MP3
Страна: Австрия
Режиссер: Эрнст Маришка
Жанр: драма, мелодрама, комедия, история
Продолжительность: 01:41:13
Год выпуска: 1956

В ролях: Роми Шнайдер, Карлхайнц Бём, Магда Шнайдер, Ута Франц, Густав Кнут, Вильма Дегишер, Йозеф Майнрад, Ерих Никовитц, Карл Фохлер, Франц Бёхайм

Описание: После пышного бракосочетания в Вене Елизавета постепенно привыкает к своему положению императрицы. Но она не хочет соблюдать придворные церемониалы, согласно которым не имеет права воспитывать собственную дочь. Франц-Иосиф склоняет голову перед традициями и волей своей властной матери. Потрясенная и разгневанная Елизавета возвращается в родительский дом,но император уговаривает ее вернуться во дворец. Чтобы преодолеть конфликт с Великой герцогиней Софи, бесцеремонно вмешивающейся в личную жизнь своего сына-императора и его супруги, Елизавете придется проявить способности искусного дипломата…



Видео: 720 x 536 (1.343), 25.000 fps, V_MPEG4/ISO/AVC, Baseline@L1.3, ~ 1 819 Kbps Kbps, 0.189 bit/pixel
Аудио: 44.100 kHz, MPEG Layer 3, 2 ch, ~128.00 kbps avg

General
Unique ID: 168348648403719580577546155723716462494 (0x7EA6C532C2870C1E037BA147C20E879E)
Complete name: E:\РЕЛИЗЫ\Все релизы 14\sissi_[tfile.ru]\sissi_molodaya_imperatrica_[tfile.ru].mkv
Format: Matroska
File size: 1.40 GiB
Duration: 1h 41mn
Overall bit rate: 1 986 Kbps
Writing application: Lavf51.12.1
Writing library: Lavf51.12.1

Video
ID: 1
Format: AVC
Format/Info: Advanced Video Codec
Format profile: Baseline@L1.3
Format settings, CABAC: No
Format settings, ReFrames: 1 frame
Codec ID: V_MPEG4/ISO/AVC
Duration: 1h 41mn
Bit rate: 1 819 Kbps
Width: 720 pixels
Height: 536 pixels
Display aspect ratio: 4:3
Frame rate: 25.000 fps
Color space: YUV
Chroma subsampling: 4:2:0
Bit depth: 8 bits
Scan type: Progressive
Bits/(Pixel*Frame): 0.189
Stream size: 1.29 GiB (92%)
Language: English / English

Audio
ID: 2
Format: MPEG Audio
Format version: Version 1
Format profile: Layer 3
Mode: Joint stereo
Mode extension: MS Stereo
Codec ID: A_MPEG/L3
Codec ID/Hint: MP3
Duration: 1h 41mn
Bit rate mode: Constant
Bit rate: 128 Kbps
Channel(s): 2 channels
Sampling rate: 44.1 KHz
Compression mode: Lossy
Stream size: 92.7 MiB (6%)
Language: English / Russian





























Сисси. Трудные годы Императрицы / Sissi - Schicksalsjahre einer Kaiserin

Перевод: Профессиональный (многоголосый, закадровый), cубтитры: отсутствуют
Формат: DVDRip-AVC, MKV, H.264, MP3
Страна: Австрия
Режиссер: Эрнст Маришка
Жанр: драма, мелодрама, комедия, история
Продолжительность: 01:44:17
Год выпуска: 1957

В ролях: Роми Шнайдер, Карлхайнц Бём, Магда Шнайдер, Ута Франц, Густав Кнут, Вильма Дегишер, Йозеф Майнрад, Ерих Никовитц, Карл Фохлер, Франц Бёхайм

Описание: Елизавета продолжает воспитывать детей, занимается государственными делами и достойно противостоит козням своей свекрови. Когда они вместе с графом Андраши уезжают в Венгрию, чтобы успокоить взбунтовавшихся дворян, эрцгерцогиня Софи распространяет слухи об их романе.
Дипломатическая миссия успешно выполнена, но тяжелая болезнь вынуждает Елизавету отправиться на лечение в Грецию. Едва выздоровев, она едет навстречу Францу-Иосифу, чтобы опровергнуть злые домыслы свекрови и посетить итальянские владения Австро-Венгрии.
Несмотря на недовольство австрийским владычеством, итальянские вельможи, покоренные благородством Елизаветы, склоняют головы перед царственной четой…




Видео: 720 x 536 (1.343), 25.000 fps, V_MPEG4/ISO/AVC, Baseline@L1.3, ~ 1 796 Kbps Kbps, 0.186 bit/pixel
Аудио: 44.100 kHz, MPEG Layer 3, 2 ch, ~128.00 kbps avg

General
Unique ID: 168348648403719580577546155723716462494 (0x7EA6C532C2870C1E037BA147C20E879E)
Complete name: E:\РЕЛИЗЫ\Все релизы 14\sissi_[tfile.ru]\sissi_trudnye_gody_imperatricy_[tfile.ru].mkv
Format: Matroska
File size: 1.43 GiB
Duration: 1h 44mn
Overall bit rate: 1 963 Kbps
Writing application: Lavf51.12.1
Writing library: Lavf51.12.1

Video
ID: 1
Format: AVC
Format/Info: Advanced Video Codec
Format profile: Baseline@L1.3
Format settings, CABAC: No
Format settings, ReFrames: 1 frame
Codec ID: V_MPEG4/ISO/AVC
Duration: 1h 44mn
Bit rate: 1 796 Kbps
Width: 720 pixels
Height: 536 pixels
Display aspect ratio: 4:3
Frame rate: 25.000 fps
Color space: YUV
Chroma subsampling: 4:2:0
Bit depth: 8 bits
Scan type: Progressive
Bits/(Pixel*Frame): 0.186
Stream size: 1.31 GiB (91%)
Language: English / English

Audio
ID: 2
Format: MPEG Audio
Format version: Version 1
Format profile: Layer 3
Mode: Joint stereo
Mode extension: MS Stereo
Codec ID: A_MPEG/L3
Codec ID/Hint: MP3
Duration: 1h 44mn
Bit rate mode: Constant
Bit rate: 128 Kbps
Channel(s): 2 channels
Sampling rate: 44.1 KHz
Compression mode: Lossy
Stream size: 95.5 MiB (7%)
Writing library: LAME3.97ЄЄЄЄЄЄЄЄЄЄЄЄ
Language: English / Russian






























реклама партнёра


Вернуться к началу
 Профиль Отправить личное сообщение  
 
   Похожие торренты   Автор   Торрент   Размер 
В этой теме нет новых непрочитанных сообщений. Остров в лучах солнечного света / Island in the Sun [драма, мелодрама, 1957] DVDRip. Avo+Sub

salma3

4 | 9

1.46 ГБ

В этой теме нет новых непрочитанных сообщений. Маришка [2014 г., Amateur, CamRip]

Dievas

6 | 5

83.31 МБ

В этой теме нет новых непрочитанных сообщений. Мунфлит / Moonfleet [драма, приключения, 1955] DVDRip, Avo

salma3

3 | 3

1.4 ГБ

В этой теме нет новых непрочитанных сообщений. К востоку от рая / East of Eden [драма, 1955] DVDRip. Mvo

salma3

7 | 5

1.37 ГБ

В этой теме нет новых непрочитанных сообщений. Огонь из преисподней / Fire Down Below [Драма, приключения, 1957] DVDRip, Mvo

salma3

17 | 3

1.37 ГБ

В этой теме нет новых непрочитанных сообщений. Герои утлого суденышка / The Cockleshell Heroes [драма, военный, 1955] DVDRip, Avo

salma3

3 | 3

1.38 ГБ

В этой теме нет новых непрочитанных сообщений. Новый свет / Nuovomondo [драма, мелодрама, история, 2006] DVDRip, Mvo

salma3

24 | 3

1.37 ГБ


Начать новую тему Ответить на тему  [ 1 сообщение ] 




Для Мосгорсуда, Роскомнадзора и рекламодателей:: mosgorsud-torrent[собачка]yandex.ru