COVID-19 - Последняя информация о коронавирусе на сайте Минздрава




Торрент файл
скачать торрент магнет ссылка Добавлен: 20 окт 2019, 10:07
Размер: 2.87 ГБ
Сидеров: 0
Личеров: 0
Статус: (salma3)
Автор

СообщениеДобавлено: 20 окт 2019, 10:07 

Не в сети
Супермодератор
Аватара пользователя
Дата регистрации:
15 фев 2012, 16:44
Возраст: 31
Спасибо: 8280 / 2148
Сообщения: 96711
Год выхода: 2016
Жанр: Фантастика, боевик, приключения
Режиссер: Брайан Сингер

В ролях: Джеймс МакЭвой, Майкл Фассбендер, Дженнифер Лоуренс, Николас Холт, Оскар Айзек, Роуз Бирн, Эван Питерс, Джош Хелман, Софи Тернер, Тай Шеридан

О фильме:
События «Дней Минувшего Будущего» оказали колоссальное влияние на мир, где мутанты и люди борются за свое место под Солнцем. В это нелегкое время Людям Икс предстоит столкнуться со своим самым опасным противником — древним мутантом Апокалипсисом, существом, схватка с которым может стать последней не только для мутантов, но и в принципе для всего человечества. В поисках способа победы над неуязвимым и бессмертным монстром Людям Икс предстоит узнать больше о происхождении своего вида. Но Апокалипсис неимоверно силен, и вероятность победы все уменьшается, ведь он твердо убежден, что только сильнейшие имеют право на выживание…



Страна: США
Продолжительность: 02:18:08
Перевод: Профессиональный (дублированный)

Файл
Качество: WEBRip-AVC
Формат: MKV
Видео: 1024x576, 25 fps, MPEG-4 AVC, 2140 kbps avg
Аудио 1: Russian: 48 kHz, AC3, 6 ch, ~384 kbps avg
Аудио 2: English: 48 kHz, AC3, 6 ch, ~448 kbps avg
Субтитры: Русские (Forced (hardsub), Full), Английские (Full)

General
UniqueID : 199376908103631525476513976915816751396 (0x95FE98834F0AA1F09DB005511D122124)
Complete name : D:Люди икс. Апокалипсис (2016) Open Matte.mkv
Format : Matroska
File size : 2.87 GiB
Duration : 2h 18mn
Overall bit rate : 2 974 Kbps
Encoded date : UTC 2019-01-15 15:20:28
Writing application : mkvmerge v6.4.1 ('Omega Point') built on Sep 16 2013 22:05:10
Writing library : libebml v1.3.0 + libmatroska v1.4.1

Video
ID : 1
Format : AVC
Format/Info : Advanced Video Codec
Format profile : High@L3.1
Format settings, CABAC : Yes
Format settings, ReFrames : 8 frames
Codec ID : V_MPEG4/ISO/AVC
Duration : 2h 18mn
Bit rate : 2 140 Kbps
Width : 1 024 pixels
Height : 576 pixels
Display aspect ratio : 16:9
Frame rate : 25.000 fps
Color space : YUV
Chroma subsampling : 4:2:0
Bit depth : 8 bits
Scan type : Progressive
Bits/(Pixel*Frame) : 0.145
Stream size : 2.01 GiB (70%)
Writing library : x264 core 146 r2538 121396c
Encoding settings : cabac=1 / ref=8 / deblock=1:0:0 / analyse=0x3:0x113 / me=umh / subme=10 / psy=1 / psy_rd=1.00:0.00 / mixed_ref=1 / me_range=32 / chroma_me=1 / trellis=2 / 8x8dct=1 / cqm=0 / deadzone=21,11 / fast_pskip=0 / chroma_qp_offset=-2 / threads=6 / lookahead_threads=1 / sliced_threads=0 / nr=0 / decimate=1 / interlaced=0 / bluray_compat=0 / constrained_intra=0 / bframes=9 / b_pyramid=2 / b_adapt=2 / b_bias=0 / direct=3 / weightb=1 / open_gop=0 / weightp=2 / keyint=250 / keyint_min=25 / scenecut=40 / intra_refresh=0 / rc_lookahead=50 / rc=2pass / mbtree=1 / bitrate=2140 / ratetol=1.0 / qcomp=0.60 / qpmin=0 / qpmax=69 / qpstep=4 / cplxblur=20.0 / qblur=0.5 / vbv_maxrate=14000 / vbv_bufsize=14000 / nal_hrd=none / filler=0 / ip_ratio=1.40 / aq=1:1.00

Audio #1
ID : 2
Format : AC-3
Format/Info : Audio Coding 3
Mode extension : CM (complete main)
Codec ID : A_AC3
Duration : 2h 18mn
Bit rate mode : Constant
Bit rate : 384 Kbps
Channel(s) : 6 channels
Channel positions : Front: L C R, Side: L R, LFE
Sampling rate : 48.0 KHz
Bit depth : 16 bits
Compression mode : Lossy
Stream size : 379 MiB (13%)
Language : Russian

Audio #2
ID : 3
Format : AC-3
Format/Info : Audio Coding 3
Mode extension : CM (complete main)
Codec ID : A_AC3
Duration : 2h 18mn
Bit rate mode : Constant
Bit rate : 448 Kbps
Channel(s) : 6 channels
Channel positions : Front: L C R, Side: L R, LFE
Sampling rate : 48.0 KHz
Bit depth : 16 bits
Compression mode : Lossy
Stream size : 443 MiB (15%)
Language : English

Text #1
ID : 4
Format : UTF-8
Codec ID : S_TEXT/UTF8
Codec ID/Info : UTF-8 Plain Text
Language : Russian

Text #2
ID : 5
Format : UTF-8
Codec ID : S_TEXT/UTF8
Codec ID/Info : UTF-8 Plain Text
Language : English




_________________
Проголосуй за трекер Открытый торрент трекер - RUS-MEDIA.ORG

Проголосуй Открытый торрент трекер - RUS-MEDIA.ORG


Скачать книги и аудио книги через торрент


Вернуться к началу
 Профиль Отправить личное сообщение  
 
   Похожие торренты   Автор   Торрент   Размер 
В этой теме нет новых непрочитанных сообщений. Люди Икс: Апокалипсис / X-Men: Apocalypse [Фантастика, Боевик, Приключения, 2016] BDRip 1080p, Dub | [Лицензия]

NTL

4 | 0

7.75 ГБ

В этой теме нет новых непрочитанных сообщений. Люди Икс: Дни минувшего будущего / X-Men: Days of Future Past [фантастика, боевик, триллер, 2014] WEBRip 1080p. Dub [Open Matte]

salma3

0 | 0

7.39 ГБ

В этой теме нет новых непрочитанных сообщений. Земля будущего / Tomorrowland [Фантастика, боевик, детектив, 2015] WEBRip-AVC, Dub [Open Matte] [Локализованная версия]

salma3

0 | 0

2.47 ГБ

В этой теме нет новых непрочитанных сообщений. Живая сталь / Real Steel [фантастика, боевик, семейный, 2011] WEBRip-AVC, Dub [Open Matte] [Локализованная версия]

salma3

0 | 0

1.45 ГБ

В этой теме нет новых непрочитанных сообщений. Могучие рейнджеры / Power Rangers [Фантастика, боевик, приключения, 2017] WEBRip 1080p, Dub [Open Matte] [Локализованная версия]

salma3

1 | 1

5.03 ГБ

В этой теме нет новых непрочитанных сообщений. Планета обезьян: Война / War for the Planet of the Apes [фантастика, боевик, триллер, 2017] WEBRip-AVC, Dub [Open Matte] [Локализованная версия]

salma3

0 | 1

2.83 ГБ

В этой теме нет новых непрочитанных сообщений. Мстители: Финал / Avengers: Endgame [Фантастика, боевик, приключения, 2019] WEBRip-HEVC 720p, Dub [iTunes] [Open Matte] [Локализованная версия]

salma3

0 | 0

4.25 ГБ


Начать новую тему Ответить на тему  [ 1 сообщение ] 




Для Мосгорсуда, Роскомнадзора и рекламодателей:: rstracker[собака]yandex.ru
cron