Торрент файл
скачать торрент магнет ссылка Добавлен: 25 май 2011, 02:06
Размер: 744.45 МБ
Сидеров: 3
Личеров: 5
Автор

СообщениеДобавлено: 25 май 2011, 02:06 

Не в сети
Супермодератор
Аватара пользователя
Дата регистрации:
22 май 2010, 11:03
Возраст: 31
Спасибо: 7509 / 13
Сообщения: 49940
Приключения Шерлока Холмса / The Adventures of Sherlock Holmes



Перевод: профессиональный двухголосый
Субтитры: отсутствуют
Формат: LowHDRip-AVC, MKV, H.264, AC3

Страна: США
Режиссер: Альфред Л. Веркер

Жанр: детектив, криминал, триллер
Продолжительность: 01:21:42
Год выпуска: 1939

В ролях: Бэзил Рэтбоун, Найджел Брюс, Ида Люпино, Джордж Зукко, Алан Маршал, Терри Килбёрн, Генри Стивенсон, Артур Хол, Мэй Битти, Мэри Гордон, Холмс Херберт, Мэри Форбс, Фрэнк Даусон, Энтони Кембл-Купер, Уильям Остин, Гордон Харт, Кейт Хичкок, Брэндон Херст, Леонард Мьюди, Джордж Ригас, Иван Ф. Симпсон, Э.Э. Клайв

Описание: Один из лучших фильмов о Шерлоке Холмсе. На этот раз непревзойденный сыщик (Бэзил Рэтбоун) сталкивается один на один со своим заклятым врагом - Мориарти (Джордж Зукко). Место и время действия, обстановка, а также вдохновенная игра всего актерского ансамбля делают этот фильм интересным для просмотра всеми истинными поклонниками детективного жанра.



Видео: 640x480 (4:3), 23.976 fps, MPEG-4 AVC (x264), High@L5.1, ~1080 kbps avg, 0.147 bit/pixel

Аудио: 48 kHz, AC3 Dolby Digital, 2/0 (L,R) ch, ~192 kbps avg

Релиз-Группы





Общее
Уникальный идентификатор: 224413022097058004838484611489133007836 (0xA8D4603C13F0935EA678FAF03DB093DC)
Полное имя: D:\prikljuchenija_sherloka_holmsa_[tfile.ru].mkv
Формат: Matroska
Размер файла: 744 Мбайт
Продолжительность: 1 ч. 21 м.
Общий поток: 1274 Кбит/сек
Дата кодирования: UTC 2011-05-13 02:18:47
Программа кодирования: mkvmerge v3.3.0 ('Language') built on Mar 24 2010 14:59:24
Библиотека кодирования: libebml v0.8.0 + libmatroska v0.9.0

Видео
Идентификатор: 1
Формат: AVC
Формат/Информация: Advanced Video Codec
Профиль формата: High@L5.1
Параметр CABAC формата: Да
Параметр ReFrames формата: 4 кадры
Идентификатор кодека: V_MPEG4/ISO/AVC
Продолжительность: 1 ч. 21 м.
Битрейт: 1080 Кбит/сек
Ширина: 640 пикс.
Высота: 480 пикс.
Соотношение сторон: 4:3
Частота кадров: 23,976 кадр/сек
Цветовое пространство: YUV
Подвыборка цветности: 4:2:0
Битовая глубина: 8 бит
Тип развёртки: Прогрессивная
Бит/(Пиксели*Кадры): 0.147
Размер потока: 617 Мбайт (83%)
Библиотека кодирования: x264 core 92 r1510 33d382a
Настройки программы: cabac=1 / ref=3 / deblock=1:0:0 / analyse=0x3:0x113 / me=hex / subme=7 / psy=1 / psy_rd=1.00:0.00 / mixed_ref=1 / me_range=16 / chroma_me=1 / trellis=1 / 8x8dct=1 / cqm=0 / deadzone=21,11 / fast_pskip=1 / chroma_qp_offset=-2 / threads=3 / sliced_threads=0 / nr=0 / decimate=1 / interlaced=0 / constrained_intra=0 / bframes=3 / b_pyramid=2 / b_adapt=1 / b_bias=0 / direct=3 / wpredb=1 / wpredp=2 / keyint=250 / keyint_min=25 / scenecut=40 / intra_refresh=0 / rc_lookahead=40 / rc=2pass / mbtree=1 / bitrate=1080 / ratetol=1.0 / qcomp=0.60 / qpmin=10 / qpmax=51 / qpstep=4 / cplxblur=20.0 / qblur=0.5 / ip_ratio=1.40 / aq=1:1.00

Аудио
Идентификатор: 2
Формат: AC-3
Формат/Информация: Audio Coding 3
Расширение режима: CM (complete main)
Идентификатор кодека: A_AC3
Продолжительность: 1 ч. 21 м.
Вид битрейта: Постоянный
Битрейт: 192 Кбит/сек
Канал(ы): 2 канала(ов)
Расположение каналов: Front: L R
Частота: 48,0 КГц
Битовая глубина: 16 бит
Метод сжатия: С потерями
Размер потока: 112 Мбайт (15%)




























реклама партнёра


Вернуться к началу
 Профиль Отправить личное сообщение  
 
   Похожие торренты   Автор   Торрент   Размер 
В этой теме нет новых непрочитанных сообщений. Частная жизнь Шерлока Холмса / The Private Life of Sherlock Holmes [Комедия, детектив, 1970] BDRip 720p, Mvo+2Dvo+Avo+Sub

salma3

15 | 6

7.08 ГБ

В этой теме нет новых непрочитанных сообщений. Приключения хитроумного брата Шерлока Холмса / The Adventure of Sherlock Holmes' Smarter Brother [комедия, 1975] BDRip 720p, Mvo

salma3

50 | 7

4.62 ГБ

В этой теме нет новых непрочитанных сообщений. Sherlock Holmes: Crimes and Punishments [Adventure, 3D, 3rd Person, 2014] [RePack]

Sykre

7 | 15

4.07 ГБ

В этой теме нет новых непрочитанных сообщений. Sherlock Holmes: Crimes and Punishments [Adventure, 3D, 3RD, Person, 2014] [Steam-Rip]

Nickolas3435

211 | 16

7.23 ГБ

В этой теме нет новых непрочитанных сообщений. Шерлок Бонд: Пес-детектив / Sherlock: Undercover Dog [комедия, приключения, семейный, 1994] DVDRip, Mvo

salma3

5 | 5

677.07 МБ

В этой теме нет новых непрочитанных сообщений. Мистер Холмс / Mr. Holmes (Билл Кондон) [Драма, криминал, детектив, 2015] HDRip, Mvo

Dracon

998 | 33

1.37 ГБ

В этой теме нет новых непрочитанных сообщений. Шерлок / Sherlock [03x01-02 из 03] [Драма, детектив, 2014] HDTVRip, Dub [Первый канал]

Dracon

2392 | 1944

1.77 ГБ


Начать новую тему Ответить на тему  [ 1 сообщение ] 




Для Мосгорсуда, Роскомнадзора и рекламодателей:: mosgorsud-torrent[собачка]yandex.ru